<svg xmlns="http://www.w3.org/2000/svg">
<defs>
<font id="FontID6" horiz-adv-x="710" font-variant="normal" font-style="normal" font-weight="900" horiz-origin-x="0" horiz-origin-y="0" vert-origin-x="512" vert-origin-y="768" vert-adv-y="1024" fill-rule="nonzero"><font-face font-family="Carot Sans" id="font-face2"><font-face-src><font-face-name name="Carot Sans Black"/></font-face-src></font-face><glyph unicode="_" horiz-adv-x="658" d="M580.991-50.984H50.012v-133.028h530.979v133.028z" id="glyph8"/><glyph unicode="a" horiz-adv-x="544" d="M27.9825 135.984c0-24.6619 4.009-46.327 12.0272-64.9955 7.9776-18.6685 18.8305-34.1378 32.4775-46.489 13.6875-12.3512 29.3594-21.5032 47.0155-27.4966 17.6561-5.9934 35.8387-8.99 54.5072-8.99 25.3098 0 49.6477 5.3049 72.9732 15.9958 23.366 10.6504 43.3304 26.646 60.0146 47.9874V-.0003h155.017v325.018c0 54.6287-18.0206 97.473-54.0212 128.493-36.0006 30.9792-89.3334 46.489-159.998 46.489-27.3346 0-55.6815-1.4984-85.0004-4.495-29.3189-2.9967-57.6658-7.1678-85.0004-12.5133v-128.007c26.6866 7.3298 53.3328 12.8371 80.0194 16.5222 26.6461 3.6446 51.6725 5.5074 74.998 5.5074 25.9982 0 44.8287-5.1834 56.4915-15.5098 11.6628-10.3264 17.4941-25.8362 17.4941-46.489V293.998c-11.3388 1.3364-23.8115 2.5108-37.499 3.4827-13.647 1.0124-27.1726 1.5388-40.4957 1.5388-61.3509 0-110.189-14.3355-146.513-43.0064-36.3246-28.6709-54.5072-68.6807-54.5072-120.029zm157.002 15.9958c0 19.3569 6.8438 33.3684 20.5313 42.0345 13.647 8.666 32.4775 12.9991 56.4915 12.9991 5.3454 0 12.3107-.162 20.9768-.5264 8.666-.324 16.6842-.81 24.0139-1.4984v-85.9723c-9.314-6.0338-19.4784-10.6909-30.4932-14.0115-11.0148-3.3206-21.5032-5.0214-31.5056-5.0214-14.6594 0-28.347 4.009-40.9816 12.0272-12.6751 7.9776-19.033 21.3412-19.033 39.9692z" id="glyph10"/><glyph unicode="c" horiz-adv-x="446" d="M34.0164 243.986c0-37.9849 6.8033-72.6492 20.4908-103.993 13.647-31.3436 32.3155-58.3138 56.0055-80.9913 23.6495-22.6776 51.146-40.3337 82.4897-53.0088 31.3436-12.6751 64.6716-18.9925 99.9838-18.9925 32.68 0 64.0236 5.3454 94.0309 15.9958v142.018c-26.6866-10.6909-53.3328-15.9958-80.0194-15.9958-36.0006 0-64.9955 9.962-86.9847 29.9668-22.0296 20.0049-33.004 48.0279-33.004 84.0285 0 35.3122 11.1768 63.1327 33.4899 83.5021 22.3536 20.3288 50.4981 30.4932 84.5145 30.4932 12.6346 0 26.1602-1.3364 40.4957-4.009 14.3355-2.6728 27.8205-6.6819 40.4957-11.9868v142.99c-31.9916 10.6504-64.6716 15.9958-97.9995 15.9958-34.6643 0-67.3443-6.6818-97.9995-20.0049-30.6552-13.323-57.5038-31.5056-80.5054-54.5072-23.0015-23.0015-41.3461-49.9717-54.9931-80.9913-13.6875-30.9792-20.4908-64.5096-20.4908-100.51z" id="glyph12"/><glyph unicode="e" horiz-adv-x="557" d="M33.004 246.011c0-40.6576 6.6818-77.1847 20.0049-109.5 13.3231-32.356 32.1536-59.5286 56.4915-81.5178 24.3379-21.9891 53.3328-38.8353 86.9847-50.4981 33.6924-11.6628 70.8674-17.4941 111.525-17.4941 26.6461 0 56.3295 1.9843 89.0095 5.9934 32.6395 4.009 61.6344 10.0024 86.9847 18.0206v123.998c-21.3412-7.3298-45.6791-13.3636-73.0137-18.0206-27.3346-4.657-52.6444-7.0058-76.0104-7.0058-35.9602 0-67.4658 7.3297-94.4764 22.0296-27.0106 14.6594-45.1527 39.6453-54.5072 74.998h302.989c4.009 40.6576 3.3611 78.8046-1.9843 114.481-5.3454 35.6767-16.4817 66.656-33.4899 93.0185-17.0082 26.3222-39.8477 47.137-68.5187 62.4848C356.3218 492.3465 320.6857 500 278.0027 500c-32.68 0-63.8212-5.8314-93.5045-17.494-29.6833-11.6629-55.6815-28.509-77.9947-50.4982-22.3536-21.989-40.1717-48.6758-53.4948-80.0194-13.323-31.3032-20.0049-66.6559-20.0049-105.977zm319.997 62.9708H187.009c7.3297 25.3503 19.1545 44.1808 35.4742 56.532 16.3602 12.3107 35.1907 18.466 56.532 18.466 22.6371 0 40.4957-6.9653 53.4948-20.9768 12.9991-14.0115 19.8429-31.9916 20.4908-54.0212z" id="glyph14"/><glyph unicode="g" horiz-adv-x="595" d="M34.0164-66.0079c0-21.3412 5.6694-40.9816 16.9677-59.0022 11.3388-17.9801 26.8486-33.4899 46.5295-46.489 19.6404-12.9991 43.0064-23.0015 69.9765-30.0073 27.0106-7.0057 56.1675-10.4884 87.5111-10.4884 44.0188 0 82.0037 5.143 113.995 15.5098 31.9916 10.3264 58.5162 24.6619 79.493 42.9659 21.0173 18.3445 36.6891 40.0097 47.0155 65.036 10.3264 24.9858 15.5098 52.1584 15.5098 81.4773v481.008c-32.68 8.0181-65.198 14.3355-97.5136 18.9925-32.3155 4.657-63.4972 7.0057-93.5045 7.0057-41.994 0-80.5054-5.8313-115.494-17.494-34.9883-11.6628-65.1575-28.671-90.5078-51.0245-25.3098-22.3131-44.9907-49.8097-59.0022-82.4897-14.0115-32.6395-20.9768-70.341-20.9768-112.983 0-41.3461 8.4636-77.6707 25.4718-109.014 17.0082-31.3436 39.1593-55.641 66.4939-73.0137C96.6624 42.6832 73.9849 26.323 57.9891 4.9817 41.9933-16.319 34.0157-40.009 34.0157-66.0073zm153.965 316.028c0 36.6486 10.3669 66.3319 31.0197 88.969 20.6528 22.6776 49.3237 34.0164 86.0128 34.0164 7.9777 0 16.4817-.6884 25.4718-2.0248 9.0305-1.2958 17.8586-2.9967 26.5247-4.981v-207.986c-22.6776-16.6842-46.6915-25.0263-72.0013-25.0263-28.023 0-51.1865 10.1644-69.4906 30.4932-18.3445 20.3693-27.5371 49.2022-27.5371 86.5392zm37.013-225.034c25.3503 0 48.8378 3.847 70.503 11.5008 21.6652 7.6942 42.156 20.8553 61.5129 39.5238v-93.0185c0-22.6776-7.1677-41.1436-21.5032-55.4791-14.3355-14.3355-37.175-21.5032-68.5187-21.5032-23.9734 0-43.6543 5.9934-59.0022 17.9801-15.3074 12.0272-23.0015 28.347-23.0015 48.9998 0 18.6685 5.6694 36.3246 17.0082 53.0088 3.3611-.648 7.0058-1.0124 11.0148-1.0124h11.9867z" id="glyph16"/><glyph unicode="i" horiz-adv-x="295" d="M57.0179 0h153.965v485.988H57.0179V0zM47.0155 622.985c0-24.6619 8.666-45.6386 25.9982-62.9708 17.3321-17.3321 37.9849-25.9982 61.9989-25.9982 24.6619 0 45.6386 8.666 62.9708 25.9982 17.3321 17.3321 25.9982 38.3089 25.9982 62.9708 0 24.0139-8.666 44.6667-25.9982 61.9989-17.3321 17.3321-38.3089 25.9982-62.9708 25.9982-24.0139 0-44.6667-8.666-61.9989-25.9982-17.3321-17.3321-25.9982-37.9849-25.9982-61.9989z" id="glyph18"/><glyph unicode="l" horiz-adv-x="295" d="M210.982 750.02H57.017V0h153.965v750.02z" id="glyph20"/><glyph unicode="n" horiz-adv-x="587" d="M210.982 485.988H57.017V0h153.965v321.981c12.6751 11.3388 25.9982 20.3693 40.0097 27.0106 14.0115 6.6818 27.6585 10.0024 41.0221 10.0024 15.9958 0 29.9668-5.5074 41.994-16.4817 11.9867-11.0148 17.9801-29.1974 17.9801-54.5072V.0001h154.005v325.99c0 27.3346-3.8066 51.6725-11.5008 73.0137-7.6537 21.3412-17.9801 39.4833-30.9792 54.5072-12.9991 14.9834-28.185 26.4842-45.5171 34.5023C400.6637 495.991 382.3191 500 363.0027 500c-28.023 0-55.8435-7.4917-83.5021-22.5156-27.6585-14.9834-50.4981-37.1345-68.5187-66.4939v74.998z" id="glyph22"/><glyph unicode="o" horiz-adv-x="609" d="M291.002-12.9991c36.0006 0 69.8145 6.6818 101.482 20.0049 31.6676 13.3231 59.1642 31.5056 82.5302 54.5072 23.3255 23.0015 41.67 50.1336 54.9931 81.4773 13.3231 31.3436 20.0049 64.6716 20.0049 100.024 0 35.3122-6.6818 68.6402-20.0049 99.9838-13.3231 31.3436-31.6676 58.6782-54.9931 82.0037-23.366 23.3255-50.8626 41.67-82.5302 54.9931-31.6676 13.3231-65.4815 20.0049-101.482 20.0049-36.0006 0-69.6525-6.6818-100.996-20.0049-31.3436-13.3231-58.6782-31.6676-82.0037-54.9931-23.3255-23.3255-41.67-50.6601-54.9931-82.0037-13.3231-31.3436-20.0049-64.6716-20.0049-99.9838 0-35.3527 6.6818-68.6807 20.0049-100.024 13.3231-31.3436 31.6676-58.4757 54.9931-81.4773 23.3255-23.0015 50.6601-41.1841 82.0037-54.5072 31.3436-13.3231 64.9955-20.0049 100.996-20.0049zm-103.993 256.014c0 34.6643 9.8405 62.6468 29.4808 83.988 19.6809 21.3412 44.5047 31.9916 74.512 31.9916s54.9931-10.6504 74.998-31.9916c20.0049-21.3412 30.0073-49.3237 30.0073-83.988s-10.0024-62.5253-30.0073-83.5021c-20.0049-21.0173-44.9907-31.5056-74.998-31.5056-30.0073 0-54.8311 10.4884-74.512 31.5056-19.6404 20.9768-29.4808 48.8378-29.4808 83.5021z" id="glyph24"/><glyph unicode="r" horiz-adv-x="423" d="M57.0179 485.988V0h153.965v293.999c15.3479 14.0115 32.356 25.8362 51.0245 35.5147 18.6685 9.638 38.6734 14.4974 59.9741 14.4974 18.0206 0 38.6734-3.6851 61.9989-11.0148v164.007c-35.9602 4.657-68.9641-2.1868-98.9714-20.4908-30.0073-18.3445-54.6692-42.5205-74.0261-72.5277v82.0037H57.0179z" id="glyph26"/><glyph unicode="s" horiz-adv-x="449" d="M34.9883 341.014c0-41.994 11.5008-75.2005 34.5023-99.4979 23.0015-24.3379 56.4915-41.5081 100.51-51.5105 25.3503-6.6818 44.0188-13.1611 56.0055-19.5189 11.9867-6.3173 17.9801-15.1454 17.9801-26.4842 0-12.6751-5.6694-22.6776-16.9677-30.0073-11.3388-7.3297-27.699-11.0148-48.9998-11.0148-14.6999 0-33.6924 1.3364-57.0179 4.009-23.3255 2.6728-48.6758 7.6942-76.0104 15.024V-4.0096c18.0206-2.6727 37.337-4.819 57.9898-6.4793 20.6933-1.6604 41.67-2.5108 63.0113-2.5108 29.3594 0 57.5038 2.8347 84.5145 8.5041 27.0106 5.6694 50.8221 14.9834 71.4749 27.9825 20.6933 12.9991 37.175 30.0073 49.5262 51.0245 12.3107 20.9768 18.5065 46.813 18.5065 77.4682 0 38.6734-11.5008 70.8674-34.5023 96.5012-23.0015 25.6743-57.1799 43.8568-102.495 54.5072-22.0296 5.3455-38.8353 10.3264-50.4981 15.024-11.7032 4.657-17.5346 12.999-17.5346 24.9857s5.3454 21.6652 15.9958 28.995c10.6909 7.3296 26.6866 11.0147 48.0279 11.0147 12.6751 0 29.4808-1.4983 50.4981-4.495 20.9768-2.9967 42.156-7.8562 63.4972-14.4974v126.994c-18.0206 2.6727-37.013 4.819-57.0179 6.4793-20.0049 1.6603-39.6453 2.5107-59.0022 2.5107-66.6559 0-118.652-14.8214-155.989-44.5047-37.337-29.6428-56.0055-67.8302-56.0055-114.481z" id="glyph28"/></font><font id="FontID3" horiz-adv-x="642" font-variant="normal" font-style="normal" font-weight="400" horiz-origin-x="0" horiz-origin-y="0" vert-origin-x="512" vert-origin-y="768" vert-adv-y="1024" fill-rule="nonzero"><font-face font-family="EA Font v1.5 by Ghettoshark" id="font-face31"><font-face-src><font-face-name name="EA Font v1.5 by Ghettoshark"/></font-face-src></font-face><glyph unicode="B" horiz-adv-x="554" d="M51.3249 732.491h312.515c32.1647-5.32 63.8198-22.3196 95.1692-51.3249 23.991-30.3302 37.8312-65.3282 41.5002-104.994v-75.6625c0-25.6828-11.3331-54.1786-34.1826-85.5075-16.3269-12.3318-24.5006-22.8292-24.5006-31.6755 47.3502-32.6539 70.8316-65.1651 70.8316-97.6559 3.3428 0 4.8512-8.1737 4.8512-24.5006v-95.1692c0-48.4916-22.6661-93.1716-68.3449-134.325C427.6597 17.9988 402.5068 7.5014 373.5015.0004H46.3305c-6.5022 2.3237-9.6616 9.6616-9.6616 21.9935v690.848c0 12.9841 4.8308 19.6494 14.6555 19.6494zm156.176-144.15V439.503l4.8308-4.9939h92.8251c12.0057 4.9939 21.0151 13.1675 26.8447 24.5006v100c-2.5071 22.8292-14.0033 34.3253-34.1623 34.3253h-85.5075l-4.8308-4.9939zm0-280.677V141.663l17.1627-2.4868h68.3449c30.8194 0 46.331 12.9841 46.331 38.9931v83.0004c0 34.1623-13.0045 51.325-39.0135 51.325h-87.9943l-4.8308-4.8309z" id="glyph37"/><glyph unicode="C" horiz-adv-x="537" d="M203.159 732.491h275.846c14.6555 0 21.9935-8.989 21.9935-26.9874v-102.507c0-17.8353-8.989-26.8243-26.8243-26.8243h-229.515c-12.658.6523-19.1602-5.8296-19.4863-19.5067l-.5096-379.005c1.8345-15.4912 10.0082-24.3172 24.3375-26.3351h230.004c14.6555 0 21.9935-5.6665 21.9935-16.9996V19.5069c0-13.0045-4.8308-19.5067-14.6555-19.5067h-312.515c-32.4908 7.1749-62.658 24.3375-90.318 51.3249-31.0029 33.8361-46.3514 75.3363-46.3514 124.501l-.4892 385.671.4892 12.1688c0 33.6731 15.3486 69.3437 46.3514 107.501 36.8325 32.4908 74.1541 48.8382 112.332 48.8382l7.3176 2.4867z" id="glyph39"/><glyph unicode="E" horiz-adv-x="524" d="M46.331 732.491h422.503l7.1749-7.3176v-110.008c0-11.333-5.6665-16.9996-16.9996-16.9996h-241.684c-9.8247 0-14.6555-4.8308-14.6555-14.6555v-127.008l7.338-7.338h204.994c14.6554 0 21.9934-5.6665 21.9934-16.9995v-104.994c0-9.8451-4.8308-14.676-14.6555-14.676h-205.014c-9.8247 0-14.6555-4.8307-14.6555-14.6554v-122.014c0-27.66 21.1578-41.5002 63.4937-41.5002h204.994c11.5165 0 17.183-5.6666 17.183-17.1627V7.3375l-7.338-7.338H166.001C119.507 12.3313 84.509 36.832 61.007 73.3383c-16.1638 32.8373-24.3374 64.4925-24.3374 95.1692v534.651c0 19.5067 3.1594 29.3314 9.6616 29.3314z" id="glyph41"/><glyph unicode="O" horiz-adv-x="559" d="M156.339 732.491h241.663c29.0053-5.9927 57.338-22.9923 85.3241-51.3249 24.5006-34.5088 36.6694-62.1688 36.6694-83.0004l2.5071-66.0008v-312.495c0-86.1598-6.5022-129.331-19.5067-129.331-12.1688-29.0053-38.1574-55.8296-78.1696-80.5137L398.002.0005H156.339C110.3341 15.3287 74.5004 45.3327 48.838 90.3389c-8.1736 16.0008-12.1688 40.3384-12.1688 73.1553v407.848c0 81.329 39.8288 134.998 119.67 161.15zm58.4998-173.481V192.826c0-30.8194 9.8247-46.331 29.3314-46.331 61.8223-3.3225 92.8251 4.8308 92.8251 24.3375l2.344 21.9935v359.009c1.6511 24.3375-8.1736 38.1574-29.3313 41.5002h-73.1757c-17.8353-6.5022-25.1733-17.9984-21.9935-34.3253z" id="glyph43"/><glyph unicode="R" horiz-adv-x="546" d="M44.0073 732.491h332.002c42.3155-10.1508 76.4982-31.329 102.487-63.4937 19.5067-21.8304 29.3314-62.4949 29.3314-122.157v-56.1761c0-55.6665-9.8247-92.1728-29.3314-109.825l-9.6616-12.1688v-4.8308c27.66-26.172 41.5002-61.8426 41.5002-107.501V14.6756c-4.3417-9.8451-10.844-14.676-19.6698-14.676H353.996c-13.0045 0-19.4863 7.338-19.4863 21.9936v236.832c-4.8512 27.6804-18.671 41.5002-41.5002 41.5002h-68.345l-9.8246-9.8247V26.8237c0-17.815-6.5023-26.8243-19.5067-26.8243H57.6653c-9.4986 0-16.0008 7.338-19.5067 21.9935l-1.488 703.18 7.338 7.3175zm170.832-148.981V439.503l7.3176-7.338h75.6828c19.1602 0 31.492 14.676 36.6694 43.8443v78.1492c-5.85 26.009-22.177 39.1765-48.8382 39.1765h-61.007l-9.8246-9.8247z" id="glyph45"/><glyph unicode="S" horiz-adv-x="544" d="M166.001 732.491h312.495l7.338-7.3176v-114.839c0-8.8259-3.1595-14.4925-9.8248-16.9996h-222.177c-25.9886-7.501-38.993-21.3412-38.993-41.5002v-51.3249c0-27.0077 24.5005-44.1704 73.3183-51.3453 12.3522 0 63.5141-12.1688 153.669-36.5063 44.0073-26.4982 66.0008-70.322 66.0008-131.818v-102.67c0-80.3302-34.998-135.671-104.994-166.001L341.8265.0003H66.0005c-8.8259 0-16.1639 4.8308-21.9934 14.676v121.993l14.6555 12.3317 16.9996-2.5071h214.839c25.9886 5.1773 39.156 18.1818 39.156 39.0135v60.9865c0 22.1769-10.6604 36.8325-31.8182 44.0073-146.514 31.0029-219.67 52.9963-219.67 66.0008-27.66 23.6649-41.5001 61.17-41.5001 112.332v104.831c0 67.1627 33.3265 116.837 100 149.001l29.3314 9.8247z" id="glyph47"/><glyph unicode="T" horiz-adv-x="559" d="M53.669 732.491h461.496l7.338-7.3176-.5096-114.839c-1.651-13.0045-7.3176-19.5067-17.1627-19.5067h-118.997c-11.4961 0-17.1627-5.6665-17.1627-17.1627V19.507c0-13.0045-4.8309-19.5067-14.676-19.5067H207.501c-11.333 0-16.9995 8.1737-16.9995 24.5006V581.003l-13.6771 9.8247H61.0074c-16.164.9988-24.3375 4.6678-24.3375 11.17v113.3308c1.8345 11.333 7.664 17.1627 16.9996 17.1627z" id="glyph49"/></font><font id="FontID1" horiz-adv-x="666" font-variant="normal" font-style="normal" font-weight="500" horiz-origin-x="0" horiz-origin-y="0" vert-origin-x="512" vert-origin-y="768" vert-adv-y="1024" fill-rule="nonzero"><font-face font-family="Carot Sans" id="font-face52"><font-face-src><font-face-name name="Carot Sans Medium"/></font-face-src></font-face><glyph unicode="%" horiz-adv-x="958" d="M792.971 632.026l-83.9935 69.9736-544.952-632.026L248.019 0l544.952 632.026zM242.99 312.021c25.3364 0 49.1638 4.9667 71.4825 14.9629 22.3815 9.9962 41.871 23.8275 58.5314 41.4938 16.6604 17.6663 29.6743 38.6647 38.979 62.9951 9.3675 24.3304 14.0199 50.8613 14.0199 79.5297 0 29.36-4.6523 56.1423-14.0199 80.4728-9.3047 24.3304-22.3186 45.5174-38.979 63.4981-16.6604 18.0435-36.1499 32.0005-58.5314 41.9967-22.3186 10.0591-46.1461 15.0258-71.4825 15.0258-25.3364 0-49.1638-4.9667-71.4825-15.0258-22.3186-9.9962-41.6824-23.9532-58.0284-41.9967-16.2832-17.9806-29.2971-39.1676-38.979-63.4981-9.6819-24.3304-14.5228-51.1128-14.5228-80.4728 0-28.6684 4.841-55.1993 14.5228-79.5297 9.6819-24.3304 22.6958-45.3288 38.979-62.9951 16.346-17.6663 35.7098-31.4975 58.0284-41.4938 22.3186-9.9962 46.1461-14.9629 71.4825-14.9629zm-78.9639 198.982c0 31.3089 7.4814 56.1423 22.4444 74.5002 15.0258 18.3579 33.8866 27.4739 56.5196 27.4739 22.6958 0 41.4938-9.3047 56.5196-27.9769 14.9629-18.6722 22.5072-43.317 22.5072-73.9972 0-30.6802-7.5443-55.0107-22.5072-72.9913-15.0258-17.9806-33.8237-27.0338-56.5196-27.0338-22.633 0-41.4938 9.0532-56.5196 27.0338-14.9629 17.9806-22.4444 42.3111-22.4444 72.9913zm550.987-523.01c25.3364 0 49.1638 5.0295 71.4825 15.0258 22.3186 9.9962 41.8081 23.8275 58.5314 41.4938 16.6604 17.6663 29.6115 38.6647 38.979 62.9951 9.3047 24.3304 14.0199 50.7984 14.0199 79.4669 0 29.36-4.7152 56.2052-14.0199 80.5356-9.3675 24.3304-22.3186 45.5174-38.979 63.4981-16.7232 17.9806-36.2127 32.0005-58.5314 41.9967-22.3186 9.9962-46.1461 15.0258-71.4825 15.0258-25.3364 0-49.1638-5.0296-71.4825-15.0258-22.3815-9.9962-41.6824-24.0161-58.0284-41.9967-16.346-17.9806-29.36-39.1676-38.979-63.4981-9.6819-24.3304-14.5228-51.1757-14.5228-80.5356 0-28.6684 4.841-55.1364 14.5228-79.4669 9.619-24.3304 22.633-45.3288 38.979-62.9951s35.6469-31.4975 58.0284-41.4938c22.3186-9.9962 46.1461-15.0258 71.4825-15.0258zm-79.0268 198.982c0 31.3718 7.5443 56.2052 22.5072 74.5002 15.0258 18.3579 33.8237 27.5368 56.5196 27.5368 22.633 0 41.4938-9.3675 56.4567-28.0397 15.0258-18.6093 22.5072-43.317 22.5072-73.9972 0-30.6174-7.4814-54.9478-22.5072-72.9913-14.9629-17.9806-33.8237-26.971-56.4567-26.971-22.6958 0-41.4938 8.9903-56.5196 26.971-14.9629 18.0435-22.5072 42.3739-22.5072 72.9913z" id="glyph58"/><glyph unicode="(" horiz-adv-x="365" d="M71.0068 277.98c0-109.983 17.9997-210.8 53.9991-302.499 35.9994-91.6521 83.9987-168.8 143.998-231.492l95.0064 60.9912c-53.9991 58.6762-95.5261 128.833-124.533 210.516-28.9602 81.6838-43.4639 169.178-43.4639 262.484 0 93.3529 14.5037 180.848 43.4639 262.531 29.0074 81.6365 70.5343 151.84 124.533 210.469l-95.0064 61.0384c-59.9991-62.6919-107.998-139.84-143.998-231.54-35.9994-91.6521-53.9991-192.469-53.9991-302.499z" id="glyph60"/><glyph unicode=")" horiz-adv-x="365" d="M169.982 279.019c0-94.0143-14.6454-181.84-43.9836-263.523C96.6603-66.1878 54.9916-136.344.9924-195.02l95.0064-60.9912c60.6605 62.6919 108.849 140.029 144.517 232.012 35.6687 91.9828 53.4795 192.989 53.4795 303.019 0 109.983-17.8107 210.658-53.4795 301.979-35.6687 91.3214-83.8569 168.328-144.517 231.02L.9924 750.9804c53.9991-58.629 95.6678-128.644 125.006-209.997 29.3381-81.3058 43.9836-168.659 43.9836-261.964z" id="glyph62"/><glyph unicode="," horiz-adv-x="275" d="M49.9811-173.016l40.9908-47.9693c43.3799 29.9887 76.8892 63.3094 100.528 99.9623 23.6389 36.7157 35.5212 75.3804 35.5212 115.994 0 28.0397-5.3439 53.1875-16.0317 75.5061-10.6249 22.3815-30.9946 44.5115-60.9833 66.5158L56.0164 41.9973c41.9967-29.9887 62.9951-62.9951 62.9951-99.0192 0-37.2815-23.0102-75.9462-69.0306-115.994z" id="glyph64"/><glyph unicode="0" horiz-adv-x="615" d="M52.9989 349.994c0-53.3132 5.9726-102.351 17.9806-146.989 12.008-44.7001 29.0456-82.9876 51.0499-114.988 21.9414-32.0005 48.7866-56.8339 80.4728-74.5002 31.6862-17.6663 66.8301-26.5309 105.495-26.5309 39.3562 0 74.6888 8.8646 105.998 26.5309 31.3089 17.6663 58.0284 42.4997 80.0327 74.5002 21.9414 32.0005 38.979 70.2879 50.987 114.988 12.008 44.6372 17.9806 93.6753 17.9806 146.989 0 54.0048-5.9726 103.169-17.9806 147.492-12.008 44.3229-29.0456 82.3589-50.987 114.045-22.0043 31.6233-48.7238 56.3309-80.0327 73.9972-31.3089 17.6663-66.6415 26.468-105.998 26.468-38.6647 0-73.8086-8.8017-105.495-26.468-31.6862-17.6663-58.5314-42.3739-80.4728-73.9972-22.0043-31.6862-39.0419-69.7221-51.0499-114.045-12.008-44.3229-17.9806-93.4867-17.9806-147.492zm131.02 0c0 76.0091 10.6249 136.489 32.0005 181.504 21.3127 45.0145 51.993 67.5217 91.9779 67.5217s70.6652-22.5072 91.9779-67.5217c21.3756-45.0145 32.0005-105.495 32.0005-181.504 0-37.3444-2.6405-71.3567-7.9844-101.974-5.344-30.6802-13.3283-57.0225-24.0161-79.0268-10.625-22.0043-23.639-38.979-38.979-50.987-15.3401-12.008-33.0064-17.9806-52.999-17.9806-19.9924 0-37.6586 5.9726-52.9988 17.9806-15.3401 12.008-28.1655 28.9828-38.476 50.987-10.3734 22.0043-18.358 48.3465-24.0161 79.0268-5.6583 30.6174-8.4874 64.6297-8.4874 101.974z" id="glyph66"/><glyph unicode="1" horiz-adv-x="402" d="M307.997 724.004L37.973 589.023V452.974l143.028 84.0563V.0003h126.996v724.004z" id="glyph68"/><glyph unicode="2" horiz-adv-x="587" d="M26.0279 12.008V0h503.961v118.006h-264.994c73.9972 63.3094 133.346 125.487 177.983 186.471 44.7001 61.0461 67.0187 123.853 67.0187 188.545 0 35.3326-5.8468 66.6415-17.4777 93.9897-11.6937 27.3482-27.5368 50.1697-47.5292 68.4647-19.9925 18.3579-43.317 32.3777-69.9736 41.9967-26.6566 9.6819-55.0107 14.5228-84.9994 14.5228-37.3444 0-71.0424-6.8528-101.031-20.4954-29.9887-13.6427-55.0107-32.8178-75.0031-57.5255-19.9925-24.6448-34.1381-54.3191-42.4997-88.9601-8.2988-34.7039-9.4933-72.677-3.4578-114.045h120.961c-3.9608 24.7077-4.1494 46.7119-.503 66.0128 3.7093 19.3638 9.9963 35.8355 18.9865 49.5411 9.0532 13.6427 20.1811 24.1418 33.5094 31.4975 13.3283 7.2928 27.3482 11.0021 41.9967 11.0021 24.0161 0 46.209-9.179 66.5158-27.5368 20.3697-18.295 30.4916-45.5174 30.4916-81.4787 0-23.3245-4.8409-47.152-14.46-71.4825-9.6818-24.3304-27.6625-53.879-54.0048-88.5201-26.3423-34.641-62.492-76.512-108.513-125.487-46.0204-49.0381-104.992-109.833-176.977-182.51z" id="glyph70"/><glyph unicode="3" horiz-adv-x="515" d="M55.0107 122.029V4.023c23.3245-6.0355 47.3406-10.3734 71.9854-13.014 24.6448-2.7034 48.3465-4.0236 70.9795-4.0236 39.3562 0 75.3804 5.0295 108.01 15.0258 32.6921 9.9962 60.6689 24.016 83.9935 41.9967 23.3245 17.9806 41.6824 39.7963 55.0107 65.5099 13.3283 25.6507 19.9925 54.5077 19.9925 86.5082 0 23.9532-4.338 45.9575-12.9511 65.95-8.676 19.9925-20.5583 37.3444-35.5212 51.993-15.0258 14.7114-32.5035 26.8452-52.4959 36.527-19.9925 9.682-41.6824 15.8432-65.0069 18.4837 20.684 3.332 40.1735 9.9962 58.4685 19.9925 18.3579 9.9962 34.5153 22.1929 48.5351 36.527 14.0199 14.3343 24.9591 30.806 33.0064 49.4783 7.9844 18.6722 12.008 38.3503 12.008 59.0343 0 24.6448-5.0296 47.8436-15.0258 69.4706-9.9962 21.6899-25.1477 40.4879-45.5174 56.5196-20.3068 15.9688-46.1461 28.6684-77.455 37.973-31.3718 9.3676-68.339 14.02-111.027 14.02-21.3127 0-45.3288-1.3203-71.9854-4.0237-26.6566-2.6405-51.6786-6.9785-75.0031-12.951v-117c15.9688 5.3438 36.3385 9.619 60.9833 12.951 24.6448 3.3321 48.3465 5.0296 70.9795 5.0296 45.3288 0 79.2154-7.9844 101.534-24.0161 22.3186-15.9688 33.5094-38.2874 33.5094-66.956 0-32.0004-13.8313-56.8338-41.4938-74.5001-27.6625-17.6663-68.2133-26.531-121.526-26.531v-96.0014c30.6802 2.6405 56.8339 1.8232 78.5238-2.5148 21.6271-4.338 39.482-11.0021 53.5018-19.9925 13.957-8.9903 24.3304-19.9925 30.9946-33.0064 6.6641-13.014 9.9962-27.1596 9.9962-42.4997 0-31.3089-13.014-56.8339-39.0419-76.512-25.965-19.6152-62.3035-29.4857-108.953-29.4857-21.3756 0-44.3229 1.5089-69.0306 4.5266-24.6448 3.0177-44.6372 7.4814-59.9774 13.5169z" id="glyph72"/><glyph unicode="4" horiz-adv-x="596" d="M302.024 699.987L28.982 198.981v-3.9608h324.029V-.0008h111.97v195.021h112.033v108.953H464.981v396.014H302.024zm50.987-396.014H207.028l145.983 282.032V303.973z" id="glyph74"/><glyph unicode="5" horiz-adv-x="550" d="M77.015 120.018V9.997c22.0043-8.676 46.9634-14.6486 75.0031-17.9806 27.9769-3.332 53.6276-5.0295 76.9521-5.0295 45.3917 0 85.188 6.1612 119.515 18.4836 34.3267 12.3852 62.9951 29.0455 86.0053 50.044 23.0102 20.9983 40.1735 45.6431 51.49 73.9972 11.3794 28.2912 17.0376 58.4685 17.0376 90.469 0 35.3325-7.3557 66.2013-22.0043 92.5436-14.7114 26.2795-34.5153 48.2838-59.5373 65.95-24.9591 17.6663-54.3191 30.6802-87.9542 39.042-33.698 8.2987-69.8479 11.505-108.513 9.4932l9.9962 160.003h234v112.976h-357.035l-27.9769-384.006c33.3208 8.0473 66.8301 12.6996 100.528 14.02 33.6351 1.3202 64.001-1.8233 90.972-9.4933 27.0338-7.6701 48.9752-19.9925 66.0128-37.0301 16.9747-16.9747 25.525-39.482 25.525-67.4588 0-37.3444-15.34-66.2014-46.0204-86.5082-30.6802-20.3697-69.0306-30.4916-114.988-30.4916-23.3874 0-46.3347 2.0118-69.0306 5.9725-22.633 4.0237-42.6883 8.9904-59.9774 15.0258z" id="glyph76"/><glyph unicode="6" horiz-adv-x="599" d="M55.0107 313.97c0-57.9655 6.6642-107.444 19.9925-148.497 13.3283-40.9908 31.4975-74.8145 54.5077-101.471 23.0102-26.6566 49.6668-46.1461 79.9698-58.5314 30.3659-12.3224 62.4921-18.4836 96.5045-18.4836 39.9849 0 74.8774 7.1671 104.489 21.5013 29.6743 14.3342 54.382 33.195 73.9972 56.5196 19.6781 23.3245 34.3895 49.8554 44.0086 79.4669 9.6819 29.6743 14.5228 59.8516 14.5228 90.5319 0 32.6921-5.3439 62.1778-16.0317 88.5201-10.6249 26.2794-25.1477 48.9752-43.4427 67.9618-18.3579 18.9865-39.5448 33.698-63.4981 44.0086-24.0161 10.3106-49.0381 15.5287-75.0031 15.5287-26.7195 0-54.1934-5.2182-82.5475-15.5287-28.2912-10.3106-54.8221-26.1537-79.4669-47.4664 7.9844 70.6652 29.6743 124.167 65.0069 160.443 35.3326 36.3385 83.3019 54.5077 143.971 54.5077 17.3519 0 36.0241-1.3203 56.0166-3.9608 19.9925-2.7034 38.6647-6.6641 56.0166-12.008v111.97c-19.3638 4.7152-39.5448 8.0473-60.5432 9.9963-20.9984 2.0118-40.1735 3.0177-57.4626 3.0177-51.993 0-98.5163-9.179-139.507-27.474-40.9908-18.3578-75.6947-44.7-103.986-79.0267-28.3541-34.3267-50.044-76.0091-65.0069-124.984C62.4924 431.4739 55.011 376.023 55.011 313.971zm250.974 31.0575c35.3326 0 62.9951-11.3794 82.9876-34.0123 20.0553-22.6958 30.0516-50.3584 30.0516-82.9876 0-37.3444-9.8705-68.2133-29.5486-92.5437-19.6152-24.3304-46.4605-36.4642-80.4728-36.4642-16.0317 0-31.3089 3.6464-46.0204 11.0021-14.6486 7.2929-27.9769 18.9865-39.9849 34.9554-12.008 16.0317-21.8157 36.5271-29.4857 61.5491-7.67 24.9591-12.1967 54.8221-13.5169 89.4631 19.3638 16.6604 40.3621 28.9828 62.9951 37.0301 22.6958 7.9844 43.6942 12.008 62.9951 12.008z" id="glyph78"/><glyph unicode="7" horiz-adv-x="508" d="M101.974 0H242.99L500 699.987H7.984V581.981h322.017L101.974-.001z" id="glyph80"/><glyph unicode="9" horiz-adv-x="599" d="M254.998 252.986c59.9774 0 113.353 22.3186 160.003 67.0187-14.0199-150.006-83.3648-225.009-207.972-225.009-18.0435 0-37.3444 1.1945-58.0284 3.5207-20.684 2.3261-39.6706 6.1612-57.0225 11.505V.0005c19.3638-4.6523 39.5448-7.9843 60.5432-9.9962 20.9984-2.0118 40.1735-3.0177 57.4626-3.0177 51.993 0 98.5163 9.179 139.507 27.5368 40.9908 18.295 75.6947 44.6372 103.986 78.964 28.3541 34.3266 50.044 76.009 65.0069 124.984 15.0258 49.038 22.5072 104.175 22.5072 165.535 0 57.9654-6.8528 107.821-20.4954 149.503-13.6427 41.6823-32.1891 75.6317-55.5136 101.974-23.3245 26.3422-50.1697 45.706-80.4728 58.0283-30.3659 12.3224-62.4921 18.4836-96.5045 18.4836-39.9849 0-74.6888-7.167-103.986-21.5013-29.36-14.3342-53.6904-33.3208-72.9913-57.0225-19.3638-23.6389-33.698-50.2955-43.0026-79.9698-9.3675-29.6743-14.0199-59.4744-14.0199-89.526 0-32.0005 5.3439-60.9833 15.9688-86.9483 10.6878-26.0279 25.3364-48.2208 44.0086-66.5158 18.6722-18.3579 40.1735-32.5035 64.504-42.4997 24.3304-9.9962 49.8554-15.0258 76.512-15.0258zm-77.015 218.031c0 37.3444 9.9962 68.1504 29.9887 92.4808 20.0553 24.3304 47.0263 36.5271 81.0386 36.5271 15.3401 0 30.303-3.7093 45.0145-11.0021 14.6486-7.3557 27.7883-18.8608 39.482-34.5153 11.6308-15.6545 21.3127-35.5212 28.9828-59.5373 7.67-23.9532 12.511-52.9989 14.5228-86.9483-38.036-36.0241-79.3411-54.0048-124.041-54.0048-33.9495 0-61.612 11.3165-82.9876 34.0123-21.3127 22.633-32.0005 50.2955-32.0005 82.9876z" id="glyph82"/><glyph unicode="A" horiz-adv-x="666" d="M270.988 700.005L-17.007 0h137.998l72.991 172.013h278.027L545 0h138.99L396.987 700.005H270.989zM432.985 283.98H233.004c7.9841 20.0312 16.4879 41.5269 25.5114 64.5344 8.9762 23.0075 17.8107 46.4875 26.5035 70.4871 8.6455 23.9996 16.9604 47.8103 24.9917 71.4792 7.9841 23.6689 15.3068 45.8733 21.9682 66.5186 6-20.6453 13.1809-42.8497 21.543-66.5186 8.3148-23.6689 16.9604-47.4796 25.9838-71.4792 8.9762-23.9996 17.9997-47.4796 26.976-70.4871 9.0235-23.0075 17.858-44.5032 26.5035-64.5344z" id="glyph84"/><glyph unicode="a" horiz-adv-x="509" d="M34.0152 133.982c0-23.9996 4.1574-45.1646 12.4722-63.4951 8.362-18.3304 19.3225-33.6373 33.0231-45.9678 13.6533-12.3305 29.4799-21.4957 47.4796-27.5429 17.9997-6 36.3301-8.9762 54.9913-8.9762 26.6925 0 52.2039 5.8109 76.5342 17.48 24.3303 11.669 45.1646 28.2043 62.503 49.511V-.0003h126.99v327.018c0 53.999-17.0076 95.6678-51.0228 124.959-33.968 29.338-83.9987 44.0308-149.998 44.0308-25.9838 0-53.4795-1.5118-82.4869-4.4882-29.0074-3.0235-56.1723-7.5116-81.4948-13.5116v-105.022c25.3224 7.37 51.1645 12.8502 77.4791 16.5352 26.3618 3.6378 51.1645 5.4803 74.5028 5.4803 57.3534 0 86.0301-24.9917 86.0301-75.0224v-28.9602c-12.7085 1.3228-26.3618 2.5039-41.0072 3.496-14.6927.992-29.3381 1.4645-44.0308 1.4645-62.6447 0-111.967-14.1258-147.966-42.4718-35.9994-28.346-53.9991-68.1722-53.9991-119.526zm128.974 13.0392c0 23.291 8.1731 40.4876 24.5193 51.4953 16.3462 10.9605 39.8261 16.4879 70.4871 16.4879 7.3227 0 17.3383-.189 29.9995-.5197 12.6612-.3307 23.6689-1.1338 33.0231-2.5039V112.014c-11.3384-9.3542-24.7083-16.5352-40.0151-21.4957-15.3541-5.0078-29.9995-7.5117-43.9836-7.5117-18.7084 0-35.6687 5.0078-51.0228 14.9761-15.3068 10.0156-23.0075 26.3618-23.0075 49.0386z" id="glyph86"/><glyph unicode="b" horiz-adv-x="562" d="M64.0147 749.988V18c61.9833-20.6453 122.974-30.9916 182.973-30.9916 85.3215 0 152.691 23.0075 202.013 68.9753 49.3221 46.015 73.9831 114.707 73.9831 206.028 0 36.6608-5.4802 69.495-16.4879 98.5024-11.0077 29.0074-25.6531 53.4795-43.9836 73.4634-18.3304 20.0312-39.6844 35.338-64.0147 46.015-24.3303 10.677-49.511 16.0155-75.4949 16.0155-49.9835 0-94.345-15.6848-132.99-47.0071v300.987H64.0147zm213.965-365.994c34.0152 0 62.1722-11.6691 84.5184-35.0073 22.3461-23.3382 33.4955-57.3062 33.4955-101.998 0-46.6764-12.6612-83.668-37.9837-110.975-25.3224-27.3539-57.3534-41.0072-95.9985-41.0072-11.3384 0-23.8579 1.181-37.5112 3.496-13.6533 2.315-25.1807 5.1495-34.4876 8.5038v251.996c29.3381 16.677 58.6762 24.9917 87.9671 24.9917z" id="glyph88"/><glyph unicode="e" horiz-adv-x="527" d="M39.023 244.012c0-40.6765 6.6613-77.0067 19.9839-108.99 13.3226-32.031 31.9837-59.0069 55.9834-81.0223 23.9996-22.0154 52.4874-38.6451 85.5105-49.9835 32.9759-11.3384 68.8336-17.0076 107.479-17.0076 25.3697 0 53.6684 2.1732 85.038 6.4723 31.3223 4.3464 59.6684 10.866 84.9908 19.5115v104.03c-22.0154-8.6927-46.4875-15.354-73.5107-20.0312-26.976-4.677-52.1567-6.992-75.4949-6.992-40.6765 0-76.676 9.8266-107.998 29.48-31.3223 19.7004-50.6921 52.2038-58.0148 97.5102h322.011c4.0157 39.3537 2.9763 75.8256-3.0236 109.51-5.9999 33.6845-17.48 63.1644-34.4876 88.4868-17.0076 25.3697-39.4954 45.1646-67.5107 59.5266-27.968 14.3147-61.9833 21.4957-101.998 21.4957-31.9837 0-62.314-5.8582-90.9907-17.5273-28.6767-11.669-53.999-28.2988-75.9673-49.9835-22.0154-21.6847-39.5427-47.9992-52.5346-78.9909-12.9919-30.9916-19.4643-66.1879-19.4643-105.494zm333.963 60.9912H166.013c7.3227 31.9837 21.3068 55.6527 41.9993 71.0068 20.6453 15.3068 44.645 23.0075 71.9989 23.0075 28.6767 0 51.1645-8.8345 67.5107-26.5035 16.299-17.669 24.8028-40.2041 25.4642-67.5107z" id="glyph90"/><glyph unicode="h" horiz-adv-x="560" d="M190.013 749.988H64.015V0h125.998v329.995c15.3068 15.3541 32.1727 27.4956 50.5031 36.5191 18.3304 8.9762 36.1412 13.4644 53.4795 13.4644 19.9839 0 37.653-6.992 53.007-20.976 15.3541-13.984 23.0075-36.9915 23.0075-69.0225V0h125.998v319.979c0 28.6767-4.0157 53.8574-11.9998 75.5421-8.0314 21.6375-18.6611 39.9679-32.031 54.9913-13.3226 14.9761-28.8184 26.3145-46.4875 33.968-17.669 7.7007-36.1412 11.5274-55.5109 11.5274-29.9995 0-59.2904-8.0314-87.9671-23.9996-28.6767-16.0155-52.6763-39.3537-71.9989-70.0146v347.995z" id="glyph92"/><glyph unicode="i" horiz-adv-x="256" d="M65.0069 0h125.998v481.977H65.0069V0zM54.9913 616.006c0-19.9839 7.181-37.3222 21.4957-52.0149 14.362-14.6454 31.842-21.9682 52.5346-21.9682 19.9839 0 37.1333 7.3227 51.4953 21.9682 14.3147 14.6927 21.4957 32.031 21.4957 52.0149s-7.181 37.3222-21.4957 52.0149c-14.362 14.6454-31.5113 21.9682-51.4953 21.9682-20.6926 0-38.1726-7.3227-52.5346-21.9682-14.3147-14.6927-21.4957-32.031-21.4957-52.0149z" id="glyph94"/><glyph unicode="l" horiz-adv-x="253" d="M190.013 749.988H64.015V0h125.998v749.988z" id="glyph96"/><glyph unicode="m" horiz-adv-x="824" d="M64.0147 481.977V0h125.998v331.979c14.6454 15.3541 30.1413 27.1649 46.4875 35.527 16.3462 8.3148 32.1727 12.4722 47.4796 12.4722 17.3383 0 32.6924-6.992 46.015-20.976 13.3226-13.984 19.9839-36.9915 19.9839-69.0225V-.0003h125.998v333.0182c14.0313 14.6454 29.1964 26.1256 45.5426 34.4876 16.299 8.3148 31.7948 12.4722 46.4875 12.4722 19.3225 0 35.4798-6.992 48.4717-20.976 13.0392-13.984 19.5115-36.9915 19.5115-69.0225V-.0008h125.998v319.979c0 57.3534-13.5116 101.006-40.4876 131.006-27.0232 29.9995-59.4794 45.0229-97.5103 45.0229-29.9995 0-59.4794-9.1652-88.4868-27.4956-29.0074-18.3304-51.826-44.5032-68.5029-78.5184-10.0156 34.6766-26.6452 60.9912-49.9835 78.9909-23.3382 17.9997-49.0386 27.0232-77.0067 27.0232-27.3539 0-54.6606-7.8424-82.0145-23.5272-27.3067-15.6375-49.9835-38.5033-67.9832-68.5029v77.9988H64.0145z" id="glyph98"/><glyph unicode="n" horiz-adv-x="557" d="M190.013 481.977H64.015V0h125.998v329.995c15.3068 15.3541 32.1727 27.4956 50.5031 36.5191 18.3304 8.9762 36.1412 13.4644 53.4795 13.4644 19.9839 0 37.653-6.992 53.007-20.976 15.3541-13.984 23.0075-36.9915 23.0075-69.0225V0h125.998v319.979c0 28.6767-4.0157 53.8574-11.9998 75.5421-8.0314 21.6375-18.6611 39.9679-32.031 54.9913-13.3226 14.9761-28.8184 26.3145-46.4875 33.968-17.669 7.7007-36.1412 11.5274-55.5109 11.5274-29.9995 0-59.2904-8.0314-87.9671-23.9996-28.6767-16.0155-52.6763-39.3537-71.9989-70.0146v79.983z" id="glyph100"/><glyph unicode="r" horiz-adv-x="388" d="M64.0147 481.977V0h125.998v306.987c15.9683 16.6769 34.6766 31.1806 55.9834 43.5111 21.354 12.3305 44.3143 18.5194 69.0225 18.5194 17.9997 0 37.3222-3.685 57.9676-11.0077v134.974c-37.9837 6.6613-72.991.3307-104.975-18.9918-32.031-19.3225-58.0148-44.645-77.9988-76.0146v83.9987H64.0144z" id="glyph102"/><glyph unicode="z" horiz-adv-x="509" d="M484.008 481.977H55.983V376.01h225.02L27.023 0h432.985v107.006H229.98l254.027 374.97z" id="glyph104"/></font><font id="FontID0" horiz-adv-x="682" font-variant="normal" font-style="normal" font-weight="700" horiz-origin-x="0" horiz-origin-y="0" vert-origin-x="512" vert-origin-y="768" vert-adv-y="1024" fill-rule="nonzero"><font-face font-family="Carot Sans" id="font-face107"><font-face-src><font-face-name name="Carot Sans ExtraBold"/></font-face-src></font-face><glyph unicode="%" horiz-adv-x="990" d="M819.985 617.022l-100.979 83.9568-548.983-614.964L271.002 1.0035l548.983 616.018zM247 311.021c26.0105 0 50.5147 4.9711 73.5124 14.9636 22.9977 9.9925 42.9827 24.002 60.005 42.0286 16.9721 17.9764 30.3289 39.1665 39.9699 63.4697 9.6912 24.3535 14.5117 50.8662 14.5117 79.538 0 28.6216-4.8205 55.1343-14.5117 79.4878-9.641 24.3033-22.9977 45.4933-39.9699 63.4697-17.0223 18.0266-37.0073 32.1868-60.005 42.5308-22.9977 10.344-47.5019 15.4657-73.5124 15.4657s-50.3138-5.1218-73.0103-15.4657c-22.6462-10.344-42.4805-24.5041-59.5029-42.5308-16.9721-17.9764-30.3289-39.1665-39.9699-63.4697-9.6912-24.3535-14.5117-50.8662-14.5117-79.4878 0-28.6719 4.8205-55.1845 14.5117-79.538 9.641-24.3033 22.9977-45.4933 39.9699-63.4697 17.0223-18.0266 36.8566-32.0362 59.5029-42.0286 22.6965-9.9925 46.9997-14.9636 73.0103-14.9636zm-62.0136 200c0 24.6548 5.8248 44.4891 17.5245 59.5029 11.6495 14.9636 26.5127 22.4956 44.4891 22.4956 18.6794 0 33.8438-7.532 45.4933-22.4956 11.6495-15.0138 17.5245-34.8481 17.5245-59.5029 0-24.705-5.875-44.3384-17.5245-59.0008-11.6495-14.7125-26.814-22.0437-45.4933-22.0437-17.9764 0-32.8396 7.3312-44.4891 22.0437-11.6997 14.6623-17.5245 34.2958-17.5245 59.0008zm557.017-523.023c26.0105 0 50.5147 5.0213 73.5124 15.0138 22.9977 9.9925 42.9827 24.002 60.005 41.9784 16.9721 18.0266 30.3289 39.1665 39.9699 63.52 9.6912 24.3033 14.5117 50.816 14.5117 79.4878 0 28.6719-4.8205 55.1845-14.5117 79.4878-9.641 24.3535-22.9977 45.4933-39.9699 63.52-17.0223 17.9764-37.0073 32.1366-60.005 42.4805-22.9977 10.344-47.5019 15.5159-73.5124 15.5159s-50.3138-5.172-73.0103-15.5159c-22.6462-10.344-42.4805-24.5041-59.5029-42.4805-16.9721-18.0266-30.3289-39.1665-39.9699-63.52-9.6912-24.3033-14.5117-50.816-14.5117-79.4878 0-28.6719 4.8205-55.1845 14.5117-79.4878 9.641-24.3535 22.9977-45.4933 39.9699-63.52 17.0223-17.9764 36.8566-31.9859 59.5029-41.9784 22.6965-9.9925 46.9997-15.0138 73.0103-15.0138zm-62.0136 200c0 24.6548 5.8248 44.4891 17.5245 59.5029 11.6495 15.0138 26.4625 22.4956 44.4891 22.4956 18.6794 0 33.8438-7.4818 45.4933-22.4956 11.6495-15.0138 17.5245-34.8481 17.5245-59.5029 0-24.6548-5.875-44.3384-17.5245-59.0008-11.6495-14.6623-26.814-21.9935-45.4933-21.9935-18.0266 0-32.8396 7.3312-44.4891 21.9935-11.6997 14.6623-17.5245 34.346-17.5245 59.0008z" id="glyph113"/><glyph unicode="'" horiz-adv-x="292" d="M49.0166 384.981l47.97-58.0001c48.0136 32.0091 85.6919 68.3354 113.035 109.023 27.2993 40.6437 40.9925 83.6422 40.9925 128.996 0 30.6572-5.8436 57.8257-17.5309 81.5054-11.6436 23.6797-34.1459 47.8392-67.4633 72.4783l-113.035-113.994c44.6993-33.9715 67.0272-68.6407 67.0272-104.008 0-35.9775-23.6797-74.6588-70.9956-116z" id="glyph115"/><glyph unicode="-" horiz-adv-x="351" d="M301.005 349.006H50.003V216.003h251.002v133.003z" id="glyph117"/><glyph unicode="." horiz-adv-x="314" d="M68.9932 78.9857c0-24.6548 8.486-45.4933 25.5084-62.4655 17.0223-17.0223 38.1622-25.5084 63.52-25.5084 24.6548 0 45.4933 8.486 62.4655 25.5084 17.0223 16.9721 25.5084 37.8107 25.5084 62.4655 0 24.705-8.486 45.4933-25.5084 62.5157-16.9721 17.0223-37.8107 25.5084-62.4655 25.5084-25.3578 0-46.4976-8.486-63.52-25.5084-17.0223-17.0223-25.5084-37.8107-25.5084-62.5157z" id="glyph119"/><glyph unicode="/" horiz-adv-x="546" d="M522.989 674.018l-119.961 54.9918-380.01-702.988 119.961-55.0485 380.01 703.044z" id="glyph121"/><glyph unicode="0" horiz-adv-x="622" d="M47.982 349.995c0-54.676 6.2054-104.319 18.5185-148.979 12.3131-44.6594 30.001-82.8691 53.0148-114.531 22.9649-31.6623 50.6694-56.1419 82.9669-73.4877 32.3463-17.3458 68.5039-25.9943 108.521-25.9943 40.6528 0 77.3478 8.6485 109.987 25.9943 32.6884 17.3458 60.4906 41.8255 83.5043 73.4877 23.0138 31.6623 40.6528 69.872 53.0148 114.531 12.3131 44.6594 18.4697 94.3027 18.4697 148.979 0 54.676-6.1566 104.173-18.4697 148.49-12.362 44.3663-30.001 82.3317-53.0148 113.994-23.0138 31.7111-50.816 56.1908-83.5043 73.5366-32.6395 17.297-69.3345 25.9943-109.987 25.9943-40.0176 0-76.1751-8.6974-108.521-25.9943-32.2975-17.3458-60.002-41.8255-82.9669-73.5366-23.0138-31.6623-40.7017-69.6277-53.0148-113.994-12.3131-44.3174-18.5185-93.8141-18.5185-148.49zm158.995 0c0 68.6504 8.844 123.18 26.5318 163.491 17.639 40.3596 43.4868 60.4906 77.4944 60.4906 34.6428 0 60.8326-20.1309 78.5205-60.4906 17.639-40.3108 26.4829-94.8402 26.4829-163.491 0-68.6504-8.844-123.473-26.4829-164.517-17.6879-40.9948-43.8777-61.4678-78.5205-61.4678-34.0076 0-59.8554 20.473-77.4944 61.4678-17.6879 41.0437-26.5318 95.8663-26.5318 164.517z" id="glyph123"/><glyph unicode="1" horiz-adv-x="422" d="M336.021 727.011L32.005 583.993V418.01l150.005 82.9669V-.0001h154.012v727.011z" id="glyph125"/><glyph unicode="2" horiz-adv-x="594" d="M19.0071 14.0233V0h521.988v143.995h-232.972c65.9631 56.6794 118.001 112.675 155.966 167.986 38.0143 55.3601 57.0214 113.701 57.0214 175.022 0 36.0109-6.01 67.8198-18.0299 95.4754-11.9711 27.7045-28.2908 51.2069-48.9592 70.5072-20.6684 19.3492-44.8549 34.0076-72.5105 44.0242-27.6556 9.9677-57.168 15.0005-88.4882 15.0005-41.3369 0-77.8364-7.5247-109.499-22.5252-31.7111-15.0005-57.852-35.6689-78.5205-62.0053-20.6684-26.3364-34.8383-57.6566-42.5095-93.9607-7.6713-36.353-8.1599-76.1751-1.5147-119.515h147.024c-8.6485 45.3435-4.9839 81.159 10.9938 107.495 16.0266 26.3364 37.6722 39.4801 64.9858 39.4801 19.3492 0 37.3302-7.6224 54.0408-22.9649 16.6618-15.3425 24.9682-37.6722 24.9682-67.038 0-19.9844-4.1532-40.6528-12.5086-61.9564-8.3065-21.3525-24.8217-48.5195-49.4967-81.501-24.6751-33.0304-59.4645-74.3672-104.466-124.011-45.0015-49.6922-104.173-112.821-177.514-189.485z" id="glyph127"/><glyph unicode="3" horiz-adv-x="518" d="M49.0083 147.025V3.013c23.3492-5.3226 47.5019-9.3397 72.5082-12.001 25.0063-2.6613 49.1589-4.017 72.5082-4.017 40.6226 0 78.1321 5.0213 112.478 15.0137 34.346 9.9925 63.8212 24.1526 88.476 42.4805 24.705 18.328 44.0372 40.5222 57.9965 66.5328 14.0095 25.9603 21.0394 54.9837 21.0394 86.9696 0 23.3492-4.1677 44.8406-12.5031 64.5242-8.3354 19.6334-19.6837 36.8064-33.9945 51.4687-14.361 14.6623-31.3332 26.8642-51.0168 36.5051-19.6837 9.6912-40.5222 16.1687-62.5157 19.533 20.0351 3.9669 38.8652 10.796 56.5403 20.4871 17.6249 9.641 33.1408 21.642 46.4976 36.003 13.3066 14.3108 24.002 30.4795 31.9859 48.5062 7.984 17.9764 12.001 36.9571 12.001 56.9922 0 24.002-5.172 46.9997-15.5159 68.9932-10.344 21.9935-26.1612 41.175-47.5019 57.4944s-48.3053 29.3246-80.9942 39.0158c-32.6889 9.641-71.3533 14.4615-115.993 14.4615-23.3492 0-48.6568-1.3055-76.0231-3.9668-27.3161-2.6613-52.6237-6.6784-75.9729-12.001v-144.012c14.6623 5.3226 34.4966 9.8418 59.5029 13.5074 25.0063 3.6656 49.1589 5.4732 72.5082 5.4732 41.3256 0 71.9558-6.6281 91.991-19.9849 19.9849-13.3066 29.9774-31.9859 29.9774-55.9879 0-26.6633-12.3023-47.3512-37.0073-62.0136-24.6548-14.6623-61.6621-21.9935-110.972-21.9935V297.013c27.9689 2.6613 51.9709 2.1592 72.006-1.5064 19.9849-3.6655 36.1537-9.189 48.5062-16.5202 12.3023-7.3311 21.2905-16.47 26.9646-27.4667 5.6741-10.9967 8.5363-22.4956 8.5363-34.4966 0-26.0105-11.6997-47.2006-34.9987-63.52-23.3492-16.3194-56.3394-24.504-99.0208-24.504-21.9935 0-45.3427 1.657-69.9975 5.0213-24.6548 3.314-43.987 7.6324-57.9965 13.0053z" id="glyph129"/><glyph unicode="4" horiz-adv-x="614" d="M286.016 700.025L24.002 192.016v-5.0213h326.99V-.0003H487.02v186.995h106.001v132.011H487.02v381.019H286.016zm64.9761-381.019l-118.002 1.0043 118.002 250.013v-251.017z" id="glyph131"/><glyph unicode="5" horiz-adv-x="561" d="M71.0018 143.008V9.993c22.6462-7.984 49.3096-13.8087 79.99-17.4743 30.6804-3.6656 58.348-5.5235 83.0028-5.5235 48.004 0 89.6811 6.1763 124.981 18.5287 35.3502 12.3023 64.6749 29.3246 88.0241 50.9666 23.3492 21.6922 40.8235 46.8491 52.5232 75.521 11.6495 28.672 17.4743 59.302 17.4743 91.991 0 31.986-6.4775 61.16-19.4828 87.522-13.0053 26.3118-31.3332 48.6568-55.0339 66.9847-23.6505 18.328-51.9709 32.3374-84.9611 41.9784-33.0404 9.6912-69.1941 14.5117-108.511 14.5117l7.984 127.994h225.006v137.032h-373.989l-31.986-399.046c31.986 7.3312 64.3234 11.8504 96.9621 13.5074 32.689 1.657 62.1642-.5021 88.5262-6.4775 26.3118-6.0256 47.8032-16.1687 64.474-30.5298 16.671-14.3108 25.0063-33.7936 25.0063-58.4986 0-31.3332-13.658-55.1343-40.974-71.5039-27.3664-16.3194-62.6664-24.4539-106.001-24.4539-24.705 0-48.707 1.9583-72.006 5.9754-23.3493 4.017-43.6858 8.687-61.0094 14.0095z" id="glyph133"/><glyph unicode="6" horiz-adv-x="602" d="M50 313.993c0-58.0199 6.8584-107.633 20.5199-149.004 13.6615-41.3164 32.3009-75.1659 55.9735-101.493 23.6726-26.3274 51.1615-45.6858 82.5221-58.0199 31.3053-12.3341 64.3252-18.4735 99.0044-18.4735 41.9801 0 78.1527 7.3562 108.462 22.0133 30.365 14.6571 55.531 33.9602 75.4978 57.9646 20.0221 24.0044 34.8451 50.9956 44.5243 81.0288 9.6792 29.9779 14.4912 60.0111 14.4912 89.9889 0 32.6881-5.3097 62.3341-15.9845 88.9934-10.6748 26.6593-24.8341 49.5022-42.5332 68.5288-17.6438 18.9712-38.3296 33.6283-62.0022 43.9712-23.6173 10.3429-48.4513 15.4867-74.5022 15.4867-24.6128 0-49.8341-4.48-75.4978-13.4956-25.6637-8.9602-50.1659-22.4558-73.4513-40.4867 18.6394 118.695 83.6283 177.987 194.967 177.987 17.3673 0 36.1726-1.1615 56.5265-3.4845 20.2987-2.323 38.8274-5.8075 55.4757-10.5088v135.011c-19.3031 3.9823-39.823 7.0243-61.5044 9.0155-21.6814 1.9911-41.1504 2.9867-58.4624 2.9867-54.0376 0-102.378-9.1814-145.022-27.4889-42.6438-18.3628-78.6504-44.5243-108.02-78.5398-29.3142-33.9602-51.8252-75.6637-67.4779-125-15.6527-49.281-23.5066-104.978-23.5066-166.98zm255.973 12.0022c30.0332 0 53.3739-9.5133 70.0221-28.4845 16.6482-19.0265 25-41.8695 25-68.5288 0-29.9779-7.854-54.9779-23.5066-75-15.6527-19.9668-37.5-29.9779-65.4867-29.9779-26.6593 0-50.6637 12.8319-72.0133 38.4956-21.3496 25.6637-34.0155 67.8097-37.9978 126.493 17.3673 13.3296 35.177 22.8429 53.4845 28.4845 18.3628 5.6969 35.177 8.5177 50.4978 8.5177z" id="glyph135"/><glyph unicode="7" horiz-adv-x="523" d="M95.0038 0h171.981l253.025 700.025H6.9798V556.013h304.042L95.0038 0z" id="glyph137"/><glyph unicode="8" horiz-adv-x="622" d="M51.9887 173.996c0-29.3169 6.352-55.5067 19.0071-78.4716 12.6551-23.0138 30.343-42.5095 53.0148-58.5361 22.6717-15.9777 49.8388-28.3397 81.501-36.9882 31.6623-8.6485 66.1585-12.9972 103.489-12.9972 37.3302 0 72.1685 4.6419 104.515 13.9744 32.2975 9.3326 60.1485 23.0138 83.5043 41.0437 23.3069 17.981 41.63 39.9687 54.9692 65.9631 13.3392 25.9943 20.0332 55.3601 20.0332 87.9996 0 44.0242-11.8734 79.8397-35.5223 107.495-23.649 27.7045-54.4806 50.5228-92.4949 68.5039 30.685 16.6618 56.1419 39.1869 76.5172 67.5266 20.3264 28.3397 30.4896 60.4906 30.4896 96.5015 0 25.3103-5.668 48.6661-17.0038 69.9697-11.3359 21.3525-27.167 39.871-47.4934 55.5067-20.3264 15.6845-45.1969 27.9977-74.5138 37.037-29.3169 8.9905-62.0053 13.4858-98.0162 13.4858-36.6461 0-69.8231-4.8373-99.4821-14.5119-29.6589-9.6746-54.8226-23.3558-75.4911-40.9948-20.6684-17.6879-36.4996-38.5029-47.4934-62.4939s-16.5152-50.3274-16.5152-79.0091c0-40.0176 9.8212-72.8525 29.5124-98.5048 19.6423-25.6523 46.1741-47.4934 79.4977-65.4744-37.3302-15.3425-68.6993-38.2097-94.0096-68.5039-25.3591-30.343-38.0143-66.5005-38.0143-108.521zm236.001 133.001c36.0109-13.3392 64.9858-29.1703 87.0224-47.4934 21.9877-18.3231 32.9815-40.1642 32.9815-65.5233 0-25.9943-9.3325-46.4673-27.9977-61.4678-18.6651-15.0005-41.3369-22.5252-68.0152-22.5252-25.9943 0-48.4706 7.8667-67.4778 23.5024-19.0071 15.6845-28.4863 37.5257-28.4863 65.5233 0 20.6684 6.3031 40.5062 19.0071 59.4645 12.6551 19.0071 30.2941 35.1803 52.9659 48.5195zM225.0072 512.02c0 21.3036 7.6713 39.4801 23.0138 54.4806 15.2937 15.0005 35.9621 22.4763 61.9564 22.4763 27.3625 0 49.0081-7.6224 65.0347-22.9649 15.9777-15.3425 23.991-34.6917 23.991-57.9986 0-38.0143-19.3492-70.7026-57.9986-98.0162-32.6884 10.6518-60.1485 23.991-82.5271 40.0176-22.3297 15.9777-33.4701 36.6461-33.4701 62.0053z" id="glyph139"/><glyph unicode="A" horiz-adv-x="682" d="M264.998 699.995L-21.025 0h169.023l63.0237 150.979h258.983L534.0051 0h168.971l-283.966 699.995h-154.012zm156.994-412.019H258.984c14.0338 34.0307 28.3247 72.8422 43.0268 116.537 14.6507 43.6437 27.348 84.1515 37.989 121.472 9.3559-37.3207 21.6933-77.6744 37.0123-121.01 15.319-43.2838 30.3295-82.3009 44.9802-117z" id="glyph141"/><glyph unicode="B" horiz-adv-x="616" d="M266.998-7.0135c206.019 0 309.011 66.6805 309.011 200.007 0 21.3516-4.3532 41.6667-13.0252 61.0144-8.6374 19.3132-20.6606 36.657-36.0006 51.997-15.3054 15.34-33.9967 28.3306-55.9701 39.0064-22.008 10.6412-46.0199 17.6548-72.0011 21.006 43.325 7.981 78.1509 27.156 104.478 57.4904 26.3267 30.3344 39.5246 65.1603 39.5246 104.478 0 52.6879-22.3535 95.6675-67.026 129.008-44.6379 33.3402-114.324 49.993-208.99 49.993-13.3361 0-28.987-.1381-46.9873-.4836s-36.1733-1.002-54.5191-2.0039a57954.6952 57954.6952 0 01-54.4845-3.0058c-18.0003-1.002-33.6857-2.142-47.0218-3.4895V2.0049C78.013.6575 94.0094-.4827 112.0097-1.4846a57954.6952 57954.6952 0 0154.4845-3.0058 1544.125 1544.125 0 0154.0008-2.0039c17.6548-.3455 33.1675-.5182 46.5036-.5182zm-48.9912 122.029v183.976h40.9757c47.3673 0 83.0224-8.4992 107.034-25.4975 23.9773-16.9983 35.966-40.492 35.966-70.481 0-30.0234-11.1595-52.5151-33.4784-67.5096-22.3535-14.9945-52.5152-22.4917-90.5196-22.4917h-30.9909c-9.9848 0-19.6587.6564-28.987 2.0038zm38.0044 293.981h-38.0044v165.008c6.668.6564 14.4762 1.1746 23.4936 1.4856 8.9829.3455 17.1711.5182 24.4956.5182 39.3519 0 67.8206-7.8427 85.51-23.4936 17.6548-15.6855 26.4994-34.1694 26.4994-55.521 0-10.6758-2.1766-21.317-6.4953-31.9928-4.3532-10.6758-11.3322-20.1769-21.0061-28.5033s-22.3535-14.9945-38.0044-20.004c-15.6509-5.0097-34.5149-7.4973-56.4884-7.4973z" id="glyph143"/><glyph unicode="C" horiz-adv-x="608" d="M46.9873 349.986c0-52.6534 9.0174-101.161 27.0177-145.488 18.0003-44.327 42.9795-82.6769 75.0069-115.015 31.9928-32.3038 69.8245-57.4903 113.495-75.4906 43.6705-18.0003 91.487-26.9831 143.484-26.9831 26.6722 0 53.3444 1.3129 80.0166 4.0077 26.6722 2.6603 51.997 6.979 76.0088 12.9906v154.989c-20.0041-7.9809-42.0122-13.9925-66.024-18.0003-23.9773-4.0077-46.3308-6.0116-66.9914-6.0116-30.6799 0-59.3214 4.526-85.9936 13.5088-26.6722 9.0174-49.8549 22.3535-69.5135 40.0083-19.6587 17.6548-35.1714 39.49-46.5036 65.5058-11.3322 25.9812-16.9983 56.0047-16.9983 90.0014 0 70.6537 20.0041 124.482 60.0124 161.484 40.0083 37.0025 92.3162 55.521 156.993 55.521 21.3516 0 44.016-2.1766 67.9934-6.5298 24.0119-4.3187 46.3308-10.814 67.026-19.486v159.999c-24.0119 6.0117-49.3367 10.3304-76.0088 12.9907-26.6722 2.6948-53.3444 4.0077-80.0166 4.0077-48.6457 0-94.8383-9.1556-138.474-27.5014-43.6705-18.3112-81.8477-43.4978-114.532-75.4906-32.6493-31.9928-58.4923-70.17-77.4945-114.497-19.0022-44.327-28.5033-92.5235-28.5033-144.52z" id="glyph145"/><glyph unicode="D" horiz-adv-x="719" d="M273.995-9.0141c59.3571 0 113.328 8.3338 162.027 25.0014 48.6422 16.6676 90.3112 40.5352 124.95 71.4893 34.6958 31.0108 61.5114 68.8815 80.5034 113.498 19.0487 44.6737 28.5164 94.6766 28.5164 150.009 0 53.3477-8.844 101.877-26.4754 145.53-17.6881 43.6533-43.3698 81.297-77.0452 112.988-33.6187 31.691-74.494 56.1823-122.456 73.4736-48.0186 17.3479-102.67 26.0219-164.012 26.0219-14.0031 0-30.3305-.3402-48.9824-1.0205-18.7085-.6236-37.8706-1.644-57.5429-3.0047-19.6723-1.304-39.1179-2.6646-58.5067-3.9685-19.3322-1.3606-36.2832-3.0047-50.9666-4.989V6.0095C78.0077 4.0253 94.3351 1.9845 112.987.0002c18.6519-1.9843 37.7005-3.685 57.0327-4.989 19.3322-1.3606 37.984-2.3244 55.9556-3.0047 18.0282-.6803 34.0155-1.0205 48.0186-1.0205zm7.9936 575.996c68.6547 0 123.193-19.1621 163.501-57.4863 40.3651-38.3242 60.491-91.842 60.491-160.497 0-68.6547-20.1259-121.832-60.491-159.476C405.1812 151.822 351.6635 133 284.9926 133c-11.3385 0-23.0172.17-34.9793.5102-12.0188.3402-22.677 1.1339-32.0313 2.4945v427.972c6.0095 1.3606 16.1574 2.211 30.5006 2.4945 14.3432.3401 25.5117.5102 33.5053.5102z" id="glyph147"/><glyph unicode="E" horiz-adv-x="525" d="M64.0004 699.995V0h403.023v143.988h-249.01v145.993h249.01V423.02h-249.01v132.987h249.01v143.988H64.0004z" id="glyph149"/><glyph unicode="F" horiz-adv-x="507" d="M63.9856 700.007V0h154.022v258.015h242.986v132.981h-242.986v165.008h242.986v144.002H63.9856z" id="glyph151"/><glyph unicode="G" horiz-adv-x="675" d="M46.985 346.013c0-55.3642 10.0242-105.177 30.0211-149.489 19.9969-44.3633 46.8308-82.0439 80.5017-113.042 33.6709-30.9978 72.6366-54.7987 117-71.5057 44.3119-16.6555 90.8343-24.9833 139.516-24.9833 29.9697 0 63.4864 2.3647 100.499 6.9912 36.9609 4.678 70.4776 11.3607 100.499 19.997v359.996h-155.04v-236.981c-33.3111-6.0146-65.1313-5.3463-95.4609 2.0047-30.3295 7.351-57.0092 20.3568-80.0391 39.0171-22.9785 18.6604-41.1248 42.153-54.4903 70.4776-13.3141 28.3247-19.9969 60.5048-19.9969 96.489 0 68.6784 19.8427 122.5 59.5281 161.518 39.634 39.0171 97.1573 58.5 172.467 58.5 12.6973 0 26.6797-.6682 41.9987-2.0048 15.3704-1.3365 30.8436-3.3414 46.5224-6.0145 15.6788-2.6731 30.9978-5.8089 46.0083-9.4587 14.9591-3.7012 27.8106-7.8651 38.5031-12.543v154.012c-25.3431 6.6827-55.6726 12.1831-91.0399 16.5012-35.3159 4.3181-67.9587 6.5286-97.9797 6.5286-54.6445 0-105.177-8.8419-151.493-26.5255-46.3168-17.6836-86.362-42.667-120.033-75.0013-33.6195-32.3343-59.9907-70.9916-78.9595-115.972-19.0202-45.0316-28.5303-94.5355-28.5303-148.512z" id="glyph153"/><glyph unicode="I" horiz-adv-x="280" d="M217.986 699.986H63.993V0h153.993v699.986z" id="glyph155"/><glyph unicode="J" horiz-adv-x="361" d="M0 133.001V-4.025c28.0061-5.3291 51.6469-7.9937 70.9791-7.9937 43.9934 0 80.5034 5.8394 109.53 17.518 28.9699 11.6787 52.1572 27.1557 69.5051 46.488 17.2912 19.3322 29.4801 41.839 36.51 67.5207 6.9732 25.6818 10.4881 52.4974 10.4881 80.5035v499.972h-154.034v-492.998c0-29.9905-8.3338-51.3069-25.0014-64.006-16.6676-12.6424-37.6439-18.992-62.9854-18.992a146.1057 146.1057 0 00-29.4801 3.0048c-9.6944 1.9842-18.1983 4.0251-25.5117 6.0094z" id="glyph157"/><glyph unicode="L" horiz-adv-x="509" d="M217.986 699.986H63.993V0h441.996v144.001H217.987v555.985z" id="glyph159"/><glyph unicode="M" horiz-adv-x="843" d="M64.0059 699.983V0h150.972v366.007l208.005-313 206.021 314.02V-.001h150.972v699.983h-90.9916l-266.965-391.009-267.022 391.009H64.0057z" id="glyph161"/><glyph unicode="N" horiz-adv-x="730" d="M64.0004 699.995V0h154.012v397.985L584.0224 0h81.9925v699.995h-154.012V302.01l-366.01 397.985H64.0004z" id="glyph163"/><glyph unicode="O" horiz-adv-x="818" d="M408.986-13.0057c48.0132 0 94.0215 8.6876 138.025 26.0114s82.5066 41.8444 115.509 73.5105c33.0026 31.6661 59.3225 69.9635 78.9595 114.995 19.6885 44.9802 29.507 94.844 29.507 149.489 0 53.9763-9.8185 103.326-29.507 147.998-19.6371 44.6718-45.9569 82.6608-78.9595 114.018-33.0026 31.3062-71.3515 55.6726-114.995 72.9965-43.6951 17.3238-89.8576 26.0114-138.539 26.0114-48.63 0-94.9982-8.8418-139.002-26.5255-44.0035-17.6836-82.5066-42.3071-115.509-73.9732-32.9512-31.7175-59.1168-69.7065-78.4969-114.018-19.3286-44.3633-28.993-93.5074-28.993-147.484 0-55.3642 9.87-105.331 29.507-150.003 19.6885-44.6718 46.0083-82.8664 79.0109-114.532 33.0026-31.6661 71.5057-55.9811 115.509-72.9965 44.0035-17.0154 90.0118-25.4974 137.974-25.4974zm-197.964 362.001c0 31.3576 5.2948 59.8365 15.9873 85.4881 10.641 25.703 25.1375 47.7047 43.4894 66.0052 18.3519 18.3519 39.4798 32.4886 63.4864 42.5127 24.0066 10.0242 48.9899 15.0105 75.0013 15.0105 26.0114 0 50.8405-4.8322 74.5386-14.4965 23.6467-9.6643 44.6204-23.4925 62.9723-41.536 18.3519-17.9921 33.0026-39.634 44.0035-64.9771 11.0009-25.3431 16.5013-54.0277 16.5013-86.0022s-5.5004-61.0189-16.5013-86.9789c-11.0009-26.0114-25.4974-48.0132-43.4894-66.0052-17.9921-17.9921-39.0171-32.0259-63.0237-41.9987-24.0066-10.0242-48.9899-15.0105-75.0013-15.0105-26.0114 0-50.9947 4.8322-75.0013 14.4965-24.0066 9.6643-44.9802 23.4925-62.9723 41.4846-17.9921 17.9921-32.4886 39.8396-43.4894 65.4912-11.0009 25.703-16.5013 54.5417-16.5013 86.5162z" id="glyph165"/><glyph unicode="P" horiz-adv-x="600" d="M63.9926 0h153.993v237.014c34.016-8.6812 69.6974-13.004 107.009-13.004 34.016 0 65.8352 5.4922 95.4929 16.4765 29.6931 11.0198 55.5241 26.6813 77.5282 47.0201 21.9687 20.3387 39.331 45.3193 51.9807 74.977 12.6851 29.6931 18.9923 63.532 18.9923 101.517 0 40.0043-6.9804 75.1541-20.9765 105.485-13.9962 30.3309-33.8388 55.843-59.528 76.5006-25.6537 20.6931-56.3036 36.1775-91.985 46.524-35.6814 10.3111-75.5085 15.4844-119.517 15.4844-33.9806 0-68.4927-.9921-103.465-2.9764-35.0081-2.0197-71.5045-5.6693-109.524-11.0198V.0004zm153.993 342.003v228.014c10.6654 1.311 21.012 2.3032 31.0042 2.9764s21.3309.9921 34.016.9921c36.6735 0 66.1541-10.311 88.4771-30.9687 22.3584-20.693 33.5199-47.339 33.5199-80.0085 0-81.9928-47.6579-123.025-143.009-123.025-7.3347 0-14.6694.1772-22.0041.5315a458.68 458.68 0 00-22.0041 1.4882z" id="glyph167"/><glyph unicode="R" horiz-adv-x="633" d="M62.9854 0h154.997v572.028c7.37 1.304 16.3275 2.1543 27.0423 2.4945 10.6582.2834 18.992.4535 25.0014.4535 24.6613 0 45.8076-3.2882 63.4957-9.9779 17.6314-6.6897 32.3148-15.477 43.9934-26.4754 11.6787-10.9984 20.2959-23.6975 25.9652-38.0407s8.5039-29.14 8.5039-44.5037c0-15.9873-2.8347-31.1242-8.5039-45.4674-5.6693-14.3432-14.2865-27.1557-25.9652-38.4942s-26.362-20.3526-43.9934-27.0423c-17.6881-6.633-38.4942-9.9779-62.5319-9.9779h-50.0028L433.0171.0005h180.963l-169.001 253.983c24.0376 7.9937 44.1635 19.3322 60.5477 34.0155 16.3275 14.6834 29.8203 31.5211 40.4785 50.5131 10.6582 18.992 18.3117 39.5147 23.0172 61.5114 4.6488 21.9967 6.9732 44.3336 6.9732 66.954 0 32.0312-6.3496 62.3617-18.992 91.0481-12.6991 28.6297-31.5211 53.9713-56.5225 75.968-25.0014 21.9967-56.1256 39.5147-93.486 52.4973-37.3037 12.9826-80.6735 19.5022-129.996 19.5022-14.6834 0-31.181-.17-49.4926-.5102-18.3684-.3402-37.0202-.9638-56.0122-1.9842-18.992-1.0205-37.814-2.1544-56.5225-3.515-18.652-1.304-35.9998-3.0047-51.9871-4.989V.0008z" id="glyph169"/><glyph unicode="S" horiz-adv-x="549" d="M51.9696 490.999c0-32.0102 5.8748-59.5014 17.5491-82.4735 11.6743-23.0474 26.512-42.3288 44.5131-57.995 18.0011-15.6662 38.111-28.5456 60.4805-38.5629 22.2942-9.942 44.1365-18.3023 65.4515-25.0056 36.0021-11.2977 62.5141-22.9721 79.536-34.9477 17.0219-12.0509 25.5329-28.9975 25.5329-50.9904 0-23.3486-10.5446-42.0276-31.5583-56.0368-20.9385-14.0092-51.1411-21.0138-90.4572-21.0138-21.9929 0-47.6764 2.1842-77.0505 6.5527-29.2988 4.2931-57.6184 10.168-84.959 17.4738V2.0328C86.9925-3.3148 114.1824-7.156 142.502-9.491c28.3197-2.3349 56.8653-3.54 85.4862-3.54 39.994 0 76.9752 4.6698 111.019 14.0092 33.9685 9.3395 63.3426 23.3486 87.9717 42.0276 24.7044 18.679 43.9858 41.651 57.995 68.9915s21.0138 58.9742 21.0138 94.9763c0 56.7146-16.1181 101.529-48.5049 134.518-32.3115 32.9894-80.5152 59.2001-144.46 78.4816-32.0102 9.3395-57.0159 20.562-75.0169 33.5166-18.0011 13.0301-27.0392 28.847-27.0392 47.5258 0 21.3151 9.5654 38.1863 28.5456 50.4632 18.9802 12.3522 44.8143 18.5283 77.5024 18.5283 12.6535 0 26.1354-.6778 40.5212-2.0336 14.3105-1.2804 28.4703-2.9374 42.4795-4.971 14.0092-2.0336 26.8133-4.3684 38.4876-7.0046 11.6743-2.636 21.1644-5.3475 28.4703-7.9837v151.992c-21.9929 3.9919-44.6637 7.0046-67.937 8.9629-23.3486 2.0336-45.7182 3.0127-67.0332 3.0127-42.7054 0-81.3437-5.3476-115.99-15.9675-34.6464-10.6952-64.1711-25.834-88.4989-45.4922-24.3278-19.658-43.0067-43.0067-56.0368-70.0459-12.9547-26.9639-19.5074-56.7899-19.5074-89.478z" id="glyph171"/><glyph unicode="T" horiz-adv-x="582" d="M0 555.985h214.017L215.0091 0h153.001v555.985h214.974v144.001H-.0009V555.985z" id="glyph173"/><glyph unicode="U" horiz-adv-x="686" d="M211.998 699.995H57.986v-444.97c0-39.377 7.351-75.3611 22.0017-108.004 14.7021-32.6942 34.8532-60.8646 60.5048-84.5114 25.6516-23.6981 55.8269-41.9987 90.5259-55.0044 34.6476-13.0057 71.9683-19.4829 111.962-19.4829 39.9938 0 77.366 6.4771 112.014 19.4829 34.6476 13.0057 64.8229 31.3062 90.5259 55.0044 25.6516 23.6467 45.9569 51.8172 60.9675 84.5114 15.0105 32.6428 22.5158 68.6269 22.5158 108.004v444.97h-154.012v-444.97c0-19.38-3.6498-36.7039-11.0009-52.0228-7.2996-15.319-17.0154-28.3247-28.993-39.0171-11.9776-10.641-26.0114-18.8146-41.9987-24.4692-15.9873-5.706-32.6428-8.5334-50.018-8.5334-17.3238 0-33.8251 2.8273-49.5039 8.5334-15.6274 5.6547-29.4556 13.8282-41.4846 24.4692-11.9776 10.6924-21.6419 23.6981-28.993 39.0171-7.351 15.319-11.0009 32.6428-11.0009 52.0228v444.97z" id="glyph175"/><glyph unicode="V" horiz-adv-x="677" d="M-24.0265 700.008L275.9655 0h124.049l300.972 700.008h-178.956L422.987 443.022c-15.2896-39.994-30.3532-79.9879-44.965-120.057-14.6871-39.994-27.3405-79.9879-38.0357-119.982-10.6199 39.994-23.1227 79.9879-37.5085 119.982-14.3105 40.0693-29.4494 80.0633-45.4922 120.057l-101.002 256.986h-180.011z" id="glyph177"/><glyph unicode="a" horiz-adv-x="516" d="M28.0162 136.02c0-24.6749 3.9583-46.3682 11.9776-65.0285 8.0193-18.6604 18.8146-34.1336 32.4886-46.471 13.674-12.3374 29.3528-21.5391 47.0364-27.5022 17.6322-6.0145 35.8299-8.996 54.4903-8.996 25.3431 0 49.6582 5.2948 72.9965 15.9873 23.3383 10.641 43.3352 26.6797 59.9907 48.0132V0h154.989v324.988c0 54.6959-17.9921 97.517-53.9763 128.515-35.9842 30.9978-89.3435 46.5224-160.027 46.5224-27.2966 0-55.6726-1.5422-84.974-4.5238-29.3528-2.9815-57.6775-7.1454-85.0254-12.4916V355.009c26.6797 7.2997 53.3594 12.8001 80.0391 16.5013 26.6283 3.6499 51.663 5.5005 75.0013 5.5005 25.96 0 44.826-5.192 56.4951-15.5246 11.6692-10.3326 17.478-25.8058 17.478-46.471v-21.025c-11.3093 1.3365-23.8524 2.5189-37.4749 3.4956-13.674 1.0281-27.1937 1.4908-40.5079 1.4908-61.3273 0-110.163-14.291-146.507-42.9754-36.344-28.6845-54.4903-68.6784-54.4903-119.981zm156.994 15.9873c0 19.3286 6.837 33.3111 20.511 41.9987 13.6226 8.6362 32.4886 13.0057 56.4951 13.0057 5.2948 0 12.3374-.1542 20.9736-.514 8.6876-.3085 16.6555-.8226 24.0066-1.4908v-86.0022c-9.3045-6.0145-19.4829-10.6924-30.4837-13.9824-11.0009-3.3414-21.4877-5.0378-31.5118-5.0378-14.6507 0-28.3247 4.0097-41.022 12.029-12.6459 7.968-18.9688 21.3335-18.9688 39.9938z" id="glyph179"/><glyph unicode="b" horiz-adv-x="564" d="M57.0179 750.02V18.992C89.0095 8.3416 121.163.3235 153.5191-4.9814c32.3155-5.3454 63.4972-8.0181 93.464-8.0181 90.0219 0 159.998 23.0015 210.011 69.0046 50.0121 46.003 74.998 115.656 74.998 208.998 0 36.0006-5.305 68.4782-15.9958 97.5136-10.6504 28.9949-25.1478 53.6568-43.4923 73.9856-18.3445 20.3288-39.4833 36.0006-63.4972 47.0155-24.0139 10.9743-48.9998 16.4817-74.998 16.4817-23.3255 0-45.3551-3.8471-66.0079-11.5008-20.6528-7.6537-39.6858-18.1826-57.0179-31.5056V750.02H57.018zm220.985-387.017c27.9825 0 51.5105-9.6785 70.503-28.9949 18.9925-19.3569 28.5089-48.3518 28.5089-87.0252 0-39.9692-10.5289-71.4749-31.5056-94.4764-21.0173-23.0015-47.5014-34.5023-79.493-34.5023-8.666 0-18.1826.81-28.5089 2.5107-10.3264 1.6604-19.1545 3.8066-26.5247 6.4793v221.025c22.0296 9.962 44.3428 14.9834 67.0203 14.9834z" id="glyph181"/><glyph unicode="c" horiz-adv-x="419" d="M33.9793 244.024c0-38.0404 6.837-72.688 20.511-104.046 13.674-31.3062 32.3343-58.2944 56.0325-80.9644 23.6467-22.67 51.1489-40.3537 82.4551-52.9995 31.3576-12.6973 64.6687-19.0202 100.036-19.0202 32.6428 0 64.0004 5.3462 93.9701 15.9873v142.035c-26.6283-10.6924-53.308-16.0387-79.9877-16.0387-35.9842 0-64.9771 10.0242-86.9789 30.0211-22.0017 19.9969-33.0026 48.0132-33.0026 83.9973 0 35.3159 11.1551 63.1779 33.4653 83.4833 22.3616 20.3568 50.5321 30.5351 84.5114 30.5351 12.6973 0 26.1656-1.3365 40.5079-4.0097 14.3423-2.673 27.8106-6.6827 40.5079-12.029v143.011c-32.0259 10.6924-64.6687 16.0387-98.0312 16.0387-34.6476 0-67.2904-6.6827-97.9797-20.0483-30.6379-13.314-57.4719-31.4604-80.5017-54.4903-22.9785-22.9785-41.3304-49.9666-55.0044-80.9644-13.674-30.9978-20.511-64.5145-20.511-100.499z" id="glyph183"/><glyph unicode="d" horiz-adv-x="565" d="M33.9793 247.982c0-86.6704 24.0066-151.802 72.0197-195.497 48.0132-43.6437 116.332-65.4912 205.007-65.4912 30.6379 0 62.6639 2.159 95.9749 6.5286 33.3625 4.318 67.0334 11.155 101.013 20.4596v736.03h-154.012V472.009c-29.3014 18.6604-62.304 28.0162-98.9565 28.0162-30.0211 0-58.3458-5.8603-85.0254-17.5294-26.6797-11.6692-50.018-28.3247-70.0149-50.018-19.9969-21.642-35.9842-47.9618-47.9618-78.9595-12.029-30.9978-18.0435-66.211-18.0435-105.536zm154.012-5.963c0 39.9937 9.8185 70.3232 29.507 90.9884s44.826 30.9978 75.5153 30.9978c8.6362 0 18.3005-.6683 28.993-2.0048 10.641-1.3366 21.3335-3.6498 31.9745-6.9912v-229.014c-7.968-2.6731-16.964-4.678-26.9881-6.0145-9.9727-1.3366-19.3286-2.0049-28.0162-2.0049-32.6428 0-59.3225 10.3326-79.9877 30.9978-20.6652 20.7166-30.9978 51.7144-30.9978 93.0448z" id="glyph185"/><glyph unicode="e" horiz-adv-x="529" d="M33.0026 245.977c0-40.6621 6.6828-77.1603 19.9969-109.495 13.3141-32.3343 32.1801-59.4767 56.4951-81.4784 24.315-22.0017 53.3594-38.8629 87.0303-50.4806 33.6195-11.6692 70.786-17.5294 111.5-17.5294 26.6283 0 56.2895 2.0048 88.9837 6.0145 32.6428 4.0097 61.6357 9.9728 86.9789 17.9921v123.991c-21.3335-7.351-45.6485-13.3141-72.9965-17.9921-27.348-4.678-52.6397-6.9912-75.978-6.9912-36.0356 0-67.496 7.2996-94.5355 22.0017-26.9881 14.6507-45.1344 39.634-54.4903 75.0013h303.038c3.9583 40.662 3.29 78.8053-2.0048 114.481-5.3463 35.6757-16.5013 66.6735-33.5167 92.9934-17.0154 26.3713-39.8396 47.1907-68.5241 62.5096-28.6331 15.319-64.3088 23.0299-106.976 23.0299-32.6942 0-63.8462-5.8603-93.5074-17.5294-29.6612-11.6692-55.6726-28.479-77.9828-50.4806-22.3616-22.0017-40.1995-48.6814-53.5136-80.0391-13.3141-31.3062-19.997-66.6221-19.997-105.999zm320.002 63.0237h-165.99c7.2996 25.3431 19.1744 44.1577 35.4701 56.4951 16.3471 12.3374 35.1617 18.5061 56.4951 18.5061 22.67 0 40.5079-6.9912 53.5136-21.025 13.0057-13.9824 19.8427-31.9745 20.511-53.9763z" id="glyph187"/><glyph unicode="g" horiz-adv-x="568" d="M34.0154-66.0207c0-21.3369 5.6692-40.973 17.0077-58.96 11.2869-18.0384 26.8-33.5 46.4877-46.5392 19.6361-12.9877 42.983-22.9861 69.9892-29.9954 27.0061-7.0092 56.1769-10.4623 87.5122-10.4623 43.9623 0 81.9976 5.1538 114.003 15.4615 32.0054 10.3592 58.4961 24.6869 79.4722 43.0346 21.0277 18.2961 36.6954 39.9938 47.003 64.99 10.3592 24.9961 15.5131 52.1569 15.5131 81.4822v481.008c-32.6754 7.9885-65.1446 14.3277-97.5107 19.0177-32.3146 4.6385-63.4953 6.9577-93.4907 6.9577-42.0038 0-80.503-5.8239-115.498-17.4715-34.9946-11.6477-65.1961-28.6554-90.5015-51.023-25.3569-22.3161-44.993-49.8377-59.0115-82.4615-13.9669-32.6754-20.9761-70.35-20.9761-113.024 0-41.3338 8.5038-77.6684 25.46-109.004 17.0077-31.3354 39.1692-55.6615 66.5361-72.9784-29.3254-11.3385-52.0023-27.6761-68.0307-49.013-15.9769-21.337-23.9654-44.993-23.9654-71.02zm153.997 316.034c0 36.6438 10.3077 66.3299 30.9746 89.0069 20.6669 22.6254 49.3223 33.9638 86.0176 33.9638 7.9885 0 16.4923-.67 25.5115-1.9585 8.9677-1.34 17.8323-3.0407 26.4907-5.0507v-207.958c-22.6769-16.6984-46.6938-24.9961-71.9992-24.9961-27.9854 0-51.1777 10.153-69.5253 30.4592-18.2961 20.3577-27.47 49.1677-27.47 86.533zm37.0046-225.017c25.3054 0 48.8069 3.8138 70.5046 11.4931 21.6461 7.6792 42.1584 20.8215 61.4853 39.53v-93.0269c0-22.6769-7.1638-41.1792-21.4915-55.5069-14.3277-14.3277-37.1592-21.4915-68.4946-21.4915-24.0169 0-43.7046 6.03-59.0115 17.9869-15.3584 12.0085-22.9861 28.3461-22.9861 49.013 0 18.6569 5.6692 36.3346 16.9561 52.9815 3.35-.6185 7.0092-.9792 11.0292-.9792h12.0085z" id="glyph189"/><glyph unicode="i" horiz-adv-x="269" d="M57.0092 0h154.012v485.992H57.0092V0zM46.985 622.989c0-24.6749 8.6876-45.6485 26.0114-62.9723 17.3238-17.3752 37.989-26.0114 61.9956-26.0114 24.6749 0 45.6999 8.6362 63.0237 26.0114 17.3238 17.3238 25.96 38.2974 25.96 62.9723 0 24.0066-8.6362 44.6718-25.96 61.9956-17.3238 17.3238-38.3488 26.0114-63.0237 26.0114-24.0066 0-44.6718-8.6876-61.9956-26.0114-17.3238-17.3238-26.0114-37.989-26.0114-61.9956z" id="glyph191"/><glyph unicode="l" horiz-adv-x="267" d="M211.021 750.013H57.009V0h154.012v750.013z" id="glyph193"/><glyph unicode="m" horiz-adv-x="827" d="M57.0092 0h154.012v322.984c11.3093 11.3607 23.6467 20.2025 36.9609 26.5255 13.3655 6.323 25.703 9.5101 37.0123 9.5101 13.9824 0 26.3198-5.5004 37.0123-16.5013 10.641-11.0009 15.9873-29.1986 15.9873-54.5417V.0006h154.012v324.988c11.3093 10.6924 23.3383 19.0202 35.9842 25.0347 12.6973 5.963 24.6749 8.996 35.9842 8.996 15.3704 0 28.1705-5.5004 38.5031-16.5013 10.3326-11.0009 15.5246-29.1986 15.5246-54.5417V.0003h154.012v326.017c0 54.6445-13.3655 97.3115-39.9938 128.001-26.6797 30.638-59.014 46.0083-97.003 46.0083-29.3528 0-58.1915-8.8418-86.5162-26.5255-28.3247-17.6836-50.8405-43.181-67.496-76.492-10.0242 33.311-26.3198 58.8083-48.9899 76.492-22.67 17.6836-48.0132 26.5255-76.0294 26.5255-26.6283 0-53.1538-7.5052-79.4736-22.5158-26.3713-15.0105-48.1674-36.4982-65.4912-64.5145v72.9965H57.009V.0008z" id="glyph195"/><glyph unicode="n" horiz-adv-x="560" d="M211.021 485.992H57.009V0h154.012v322.007c12.6459 11.3093 25.96 20.3054 39.9938 26.9881 13.9824 6.6828 27.6564 10.0242 40.9705 10.0242 16.0387 0 30.0211-5.5004 41.9987-16.5013 12.029-11.0009 17.9921-29.1986 17.9921-54.5417V.0003h154.012v326.017c0 27.2966-3.804 51.663-11.4635 72.9965-7.7109 21.3335-18.0435 39.4798-31.0492 54.4903-12.9543 15.0105-28.1191 26.4741-45.4943 34.4934-17.3238 8.0193-35.6243 12.029-55.0044 12.029-27.9648 0-55.8269-7.5053-83.4833-22.5158-27.6564-15.0105-50.4806-37.1665-68.4727-66.5193v75.0013z" id="glyph197"/><glyph unicode="o" horiz-adv-x="582" d="M291.009-13.0057c35.9842 0 69.8093 6.6828 101.475 19.9969 31.6661 13.3655 59.1683 31.5118 82.5066 54.4903 23.3383 23.0299 41.6902 50.1722 55.0044 81.5298 13.3141 31.3062 19.9969 64.6687 19.9969 99.9846s-6.6828 68.6784-19.9969 99.9846c-13.3141 31.3576-31.6661 58.7056-55.0044 82.0439-23.3383 23.2869-50.8405 41.6388-82.5066 54.953-31.6661 13.3655-65.4912 20.0483-101.475 20.0483-35.9842 0-69.6551-6.6828-101.013-20.0483-31.3062-13.3141-58.6542-31.6661-81.9925-54.953-23.3383-23.3383-41.6902-50.6863-55.0044-82.0439-13.3141-31.3062-19.9969-64.6687-19.9969-99.9846s6.6828-68.6784 19.9969-99.9846c13.3141-31.3576 31.6661-58.5 55.0044-81.5298 23.3383-22.9785 50.6863-41.1248 81.9925-54.4903 31.3576-13.3141 65.0285-19.9969 101.013-19.9969zm-103.994 256.002c0 34.6476 9.8185 62.6639 29.507 83.9973 19.6371 21.3335 44.4661 32.0259 74.4872 32.0259 29.9697 0 55.0044-10.6924 75.0013-32.0259 19.9969-21.3335 29.9697-49.3497 29.9697-83.9973s-9.9727-62.5096-29.9697-83.4833c-19.9969-21.025-45.0316-31.5118-75.0013-31.5118-30.0211 0-54.8502 10.4868-74.4872 31.5118-19.6885 20.9736-29.507 48.8357-29.507 83.4833z" id="glyph199"/><glyph unicode="r" horiz-adv-x="397" d="M57.0092 485.992V0h154.012v293.991c15.319 14.0338 32.3343 25.8572 50.9947 35.5215 18.6604 9.6643 38.6573 14.4965 59.9907 14.4965 17.9921 0 38.6573-3.6498 61.9956-11.0009v163.985c-35.9842 4.678-68.9868-2.159-99.0079-20.511-29.9697-18.3005-54.6445-42.4613-73.9732-72.4824v81.9925H57.0091z" id="glyph201"/><glyph unicode="s" horiz-adv-x="421" d="M35.0075 340.976c0-41.9987 11.5149-75.1555 34.4934-99.4705 22.9785-24.315 56.4951-41.4846 100.499-51.5088 25.3431-6.6828 44.0035-13.1599 55.9811-19.4829 12.029-6.323 18.0435-15.1648 18.0435-26.5255 0-12.6459-5.706-22.67-17.0154-29.9697-11.3607-7.351-27.6564-11.0009-48.9899-11.0009-14.7021 0-33.6709 1.3365-57.0092 3.9583-23.3383 2.673-48.6814 7.7108-76.0294 15.0105V-4.0095c18.0435-2.6732 37.3721-4.8322 58.0373-6.4772 20.6652-1.6964 41.6388-2.5189 62.9723-2.5189 29.3528 0 57.5233 2.8273 84.5114 8.482 26.9881 5.706 50.8405 15.0105 71.5057 28.0162 20.6652 13.0057 37.1665 30.0211 49.5039 50.9947 12.3374 21.025 18.5061 46.8308 18.5061 77.5202 0 38.6573-11.5149 70.8374-34.4934 96.489-23.0299 25.6516-57.2148 43.8493-102.503 54.4903-22.0017 5.3462-38.8629 10.3326-50.5321 15.0105-11.6692 4.678-17.478 13.0057-17.478 24.9833 0 12.029 5.3462 21.6933 15.9873 29.0444 10.6924 7.2996 26.6797 10.9495 48.0132 10.9495 12.6459 0 29.507-1.4908 50.4806-4.4723 21.025-2.9816 42.1529-7.8137 63.4864-14.4965v126.973c-17.9921 2.673-36.9609 4.8321-56.9578 6.5285-19.9969 1.645-39.6854 2.519-59.014 2.519-66.6735 0-118.696-14.8564-156.017-44.5177-37.3207-29.6612-55.9811-67.8559-55.9811-114.532z" id="glyph203"/><glyph unicode="t" horiz-adv-x="392" d="M13.9824 355.986h57.0092V152.007c0-26.0114 4.8322-49.3497 14.4965-70.0149 9.6643-20.6652 22.8242-37.989 39.5312-51.9714 16.6555-14.0338 36.4982-24.6749 59.4767-32.0259 22.9785-7.351 47.8589-11.0009 74.4872-11.0009 15.3704 0 31.5118.6683 48.5272 2.0048 16.964 1.3366 32.4886 3.6498 46.471 6.9912v121.986c-7.2996-2.6217-16.964-4.4723-28.993-5.5004-11.9776-.9767-22.67-1.4908-31.9745-1.4908-21.3335 0-37.989 4.678-50.018 14.0338-11.9776 9.3045-17.9921 24.315-17.9921 44.9802v185.987h128.978v130.006h-128.978v109.032h-6.0145l-205.007-231.018v-8.0193z" id="glyph205"/><glyph unicode="u" horiz-adv-x="557" d="M278.999-12.9972c32.6884 0 69.1879 3.176 109.499 9.4791 40.3596 6.352 77.8364 14.854 112.479 25.5057v463.989H347.014v-350.972c-9.3325-3.3225-19.4957-6.1565-30.5385-8.5019-10.9938-2.3453-21.157-3.518-30.4896-3.518-22.6717 0-41.1414 5.668-55.5067 17.0038-14.3164 11.3359-21.4991 27.6556-21.4991 49.0081v296.98H55.0171v-316.965c0-56.6794 19.6423-101.192 58.9759-133.49 39.3335-32.3463 94.3516-48.5195 165.005-48.5195z" id="glyph207"/><glyph unicode="v" horiz-adv-x="525" d="M-19.9969 485.992L216.9841 0h92.9934l237.033 485.992h-167.018l-50.018-110.009c-13.3141-29.3014-25.6516-58.9626-36.9609-88.9837-11.3607-30.0211-20.3568-57.9859-27.0395-83.9973-6.6314 26.0114-15.4732 53.9763-26.4741 83.9973-11.0009 30.0211-23.1841 59.6823-36.4982 88.9837l-50.018 110.009h-172.981z" id="glyph209"/><glyph unicode="x" horiz-adv-x="573" d="M200.996 241.98L4.978 0H191.98l49.0044 67.9757c6.6925 9.3474 13.8274 20.6858 21.5155 34.0155 7.688 13.3296 14.823 26.9912 21.5155 40.9845 7.3009-13.9934 14.823-27.6549 22.5111-40.9845 7.6327-13.3296 15.1549-24.6681 22.4558-34.0155L377.9867 0h187.998l-194.967 242.976 195.962 243.031h-188.993l-45.9624-65.9845c-7.3562-10.0111-15.2102-21.8473-23.5066-35.5088-8.3518-13.6615-16.2058-28.1527-23.5066-43.5288-7.3562 15.3761-14.823 29.8673-22.5111 43.5288-7.688 13.6615-15.1549 25.4978-22.5111 35.5088l-48.0088 65.9845H5.9731l195.022-244.027z" id="glyph211"/><glyph unicode="y" horiz-adv-x="523" d="M151.008 485.988H-18.993L187.008 46.003 66.007-200.008h167.976l310.035 685.997h-165.02l-50.0121-109.986c-13.3231-30.0073-25.8362-62.4848-37.499-97.5136-11.6628-34.9883-20.1668-66.8179-25.4718-95.4888-5.3454 28.6709-14.1735 60.5005-26.5247 95.4888-12.3107 35.0288-25.1478 67.5063-38.5114 97.5136l-49.9717 109.986z" id="glyph213"/><glyph unicode="í" horiz-adv-x="269" d="M211.021 0v485.992H57.009V0h154.012zm79.9877 693.004l-103.018 59.014-139.978-215.031h108.981l134.015 156.017z" id="glyph215"/></font>
</defs>
</svg>
